  0
SECTION
  2
HEADER
  9
$ACADVER
  1
AC1015
  9
$ACADMAINTVER
 70
    20
  9
$DWGCODEPAGE
  3
ANSI_936
  9
$INSBASE
 10
0.0
 20
0.0
 30
0.0
  9
$EXTMIN
 10
609.9567787917473
 20
285.3754814222887
 30
-0.0015258207003583
  9
$EXTMAX
 10
820.0407665927066
 20
582.4101838619137
 30
0.0000000349246037
  9
$LIMMIN
 10
0.0
 20
0.0
  9
$LIMMAX
 10
12.0
 20
9.0
  9
$ORTHOMODE
 70
     0
  9
$REGENMODE
 70
     1
  9
$FILLMODE
 70
     1
  9
$QTEXTMODE
 70
     0
  9
$MIRRTEXT
 70
     0
  9
$LTSCALE
 40
1.0
  9
$ATTMODE
 70
     1
  9
$TEXTSIZE
 40
0.2
  9
$TRACEWID
 40
0.05
  9
$TEXTSTYLE
  7
Standard
  9
$CLAYER
  8
0
  9
$CELTYPE
  6
ByLayer
  9
$CECOLOR
 62
   256
  9
$CELTSCALE
 40
1.0
  9
$DISPSILH
 70
     0
  9
$DIMSCALE
 40
1.0
  9
$DIMASZ
 40
0.18
  9
$DIMEXO
 40
0.0625
  9
$DIMDLI
 40
0.38
  9
$DIMRND
 40
0.0
  9
$DIMDLE
 40
0.0
  9
$DIMEXE
 40
0.18
  9
$DIMTP
 40
0.0
  9
$DIMTM
 40
0.0
  9
$DIMTXT
 40
0.18
  9
$DIMCEN
 40
0.09
  9
$DIMTSZ
 40
0.0
  9
$DIMTOL
 70
     0
  9
$DIMLIM
 70
     0
  9
$DIMTIH
 70
     1
  9
$DIMTOH
 70
     1
  9
$DIMSE1
 70
     0
  9
$DIMSE2
 70
     0
  9
$DIMTAD
 70
     0
  9
$DIMZIN
 70
     0
  9
$DIMBLK
  1

  9
$DIMASO
 70
     1
  9
$DIMSHO
 70
     1
  9
$DIMPOST
  1

  9
$DIMAPOST
  1

  9
$DIMALT
 70
     0
  9
$DIMALTD
 70
     2
  9
$DIMALTF
 40
25.4
  9
$DIMLFAC
 40
1.0
  9
$DIMTOFL
 70
     0
  9
$DIMTVP
 40
0.0
  9
$DIMTIX
 70
     0
  9
$DIMSOXD
 70
     0
  9
$DIMSAH
 70
     0
  9
$DIMBLK1
  1

  9
$DIMBLK2
  1

  9
$DIMSTYLE
  2
Standard
  9
$DIMCLRD
 70
     0
  9
$DIMCLRE
 70
     0
  9
$DIMCLRT
 70
     0
  9
$DIMTFAC
 40
1.0
  9
$DIMGAP
 40
0.09
  9
$DIMJUST
 70
     0
  9
$DIMSD1
 70
     0
  9
$DIMSD2
 70
     0
  9
$DIMTOLJ
 70
     1
  9
$DIMTZIN
 70
     0
  9
$DIMALTZ
 70
     0
  9
$DIMALTTZ
 70
     0
  9
$DIMUPT
 70
     0
  9
$DIMDEC
 70
     4
  9
$DIMTDEC
 70
     4
  9
$DIMALTU
 70
     2
  9
$DIMALTTD
 70
     2
  9
$DIMTXSTY
  7
Standard
  9
$DIMAUNIT
 70
     0
  9
$DIMADEC
 70
     0
  9
$DIMALTRND
 40
0.0
  9
$DIMAZIN
 70
     0
  9
$DIMDSEP
 70
    46
  9
$DIMATFIT
 70
     3
  9
$DIMFRAC
 70
     0
  9
$DIMLDRBLK
  1

  9
$DIMLUNIT
 70
     2
  9
$DIMLWD
 70
    -2
  9
$DIMLWE
 70
    -2
  9
$DIMTMOVE
 70
     0
  9
$LUNITS
 70
     2
  9
$LUPREC
 70
     4
  9
$SKETCHINC
 40
0.1
  9
$FILLETRAD
 40
0.0
  9
$AUNITS
 70
     0
  9
$AUPREC
 70
     0
  9
$MENU
  1
.
  9
$ELEVATION
 40
0.0
  9
$PELEVATION
 40
0.0
  9
$THICKNESS
 40
0.0
  9
$LIMCHECK
 70
     0
  9
$CHAMFERA
 40
0.0
  9
$CHAMFERB
 40
0.0
  9
$CHAMFERC
 40
0.0
  9
$CHAMFERD
 40
0.0
  9
$SKPOLY
 70
     0
  9
$TDCREATE
 40
2458487.690273924
  9
$TDUCREATE
 40
2458487.356940590
  9
$TDUPDATE
 40
2458488.397518577
  9
$TDUUPDATE
 40
2458488.064185243
  9
$TDINDWG
 40
0.0019377546
  9
$TDUSRTIMER
 40
0.0019374537
  9
$USRTIMER
 70
     1
  9
$ANGBASE
 50
0.0
  9
$ANGDIR
 70
     0
  9
$PDMODE
 70
     0
  9
$PDSIZE
 40
0.0
  9
$PLINEWID
 40
0.0
  9
$SPLFRAME
 70
     0
  9
$SPLINETYPE
 70
     6
  9
$SPLINESEGS
 70
     8
  9
$HANDSEED
  5
871
  9
$SURFTAB1
 70
     6
  9
$SURFTAB2
 70
     6
  9
$SURFTYPE
 70
     6
  9
$SURFU
 70
     6
  9
$SURFV
 70
     6
  9
$UCSBASE
  2

  9
$UCSNAME
  2

  9
$UCSORG
 10
0.0
 20
0.0
 30
0.0
  9
$UCSXDIR
 10
1.0
 20
0.0
 30
0.0
  9
$UCSYDIR
 10
0.0
 20
1.0
 30
0.0
  9
$UCSORTHOREF
  2

  9
$UCSORTHOVIEW
 70
     0
  9
$UCSORGTOP
 10
0.0
 20
0.0
 30
0.0
  9
$UCSORGBOTTOM
 10
0.0
 20
0.0
 30
0.0
  9
$UCSORGLEFT
 10
0.0
 20
0.0
 30
0.0
  9
$UCSORGRIGHT
 10
0.0
 20
0.0
 30
0.0
  9
$UCSORGFRONT
 10
0.0
 20
0.0
 30
0.0
  9
$UCSORGBACK
 10
0.0
 20
0.0
 30
0.0
  9
$PUCSBASE
  2

  9
$PUCSNAME
  2

  9
$PUCSORG
 10
0.0
 20
0.0
 30
0.0
  9
$PUCSXDIR
 10
1.0
 20
0.0
 30
0.0
  9
$PUCSYDIR
 10
0.0
 20
1.0
 30
0.0
  9
$PUCSORTHOREF
  2

  9
$PUCSORTHOVIEW
 70
     0
  9
$PUCSORGTOP
 10
0.0
 20
0.0
 30
0.0
  9
$PUCSORGBOTTOM
 10
0.0
 20
0.0
 30
0.0
  9
$PUCSORGLEFT
 10
0.0
 20
0.0
 30
0.0
  9
$PUCSORGRIGHT
 10
0.0
 20
0.0
 30
0.0
  9
$PUCSORGFRONT
 10
0.0
 20
0.0
 30
0.0
  9
$PUCSORGBACK
 10
0.0
 20
0.0
 30
0.0
  9
$USERI1
 70
     0
  9
$USERI2
 70
     0
  9
$USERI3
 70
     0
  9
$USERI4
 70
     0
  9
$USERI5
 70
     0
  9
$USERR1
 40
0.0
  9
$USERR2
 40
0.0
  9
$USERR3
 40
0.0
  9
$USERR4
 40
0.0
  9
$USERR5
 40
2.5
  9
$WORLDVIEW
 70
     1
  9
$SHADEDGE
 70
     3
  9
$SHADEDIF
 70
    70
  9
$TILEMODE
 70
     1
  9
$MAXACTVP
 70
    64
  9
$PINSBASE
 10
0.0
 20
0.0
 30
0.0
  9
$PLIMCHECK
 70
     0
  9
$PEXTMIN
 10
0.0
 20
0.0
 30
0.0
  9
$PEXTMAX
 10
0.0
 20
0.0
 30
0.0
  9
$PLIMMIN
 10
0.0
 20
0.0
  9
$PLIMMAX
 10
12.0
 20
9.0
  9
$UNITMODE
 70
     0
  9
$VISRETAIN
 70
     1
  9
$PLINEGEN
 70
     0
  9
$PSLTSCALE
 70
     1
  9
$TREEDEPTH
 70
  3020
  9
$CMLSTYLE
  2
Standard
  9
$CMLJUST
 70
     0
  9
$CMLSCALE
 40
1.0
  9
$PROXYGRAPHICS
 70
     1
  9
$MEASUREMENT
 70
     0
  9
$CELWEIGHT
370
    -1
  9
$ENDCAPS
280
     0
  9
$JOINSTYLE
280
     0
  9
$LWDISPLAY
290
     0
  9
$INSUNITS
 70
     1
  9
$HYPERLINKBASE
  1

  9
$STYLESHEET
  1

  9
$XEDIT
290
     1
  9
$CEPSNTYPE
380
     0
  9
$PSTYLEMODE
290
     1
  9
$FINGERPRINTGUID
  2
{77E6E8DF-F03C-4211-A5A5-0D68C67349D5}
  9
$VERSIONGUID
  2
{2729C4D3-7ED9-490D-882D-A3AD8549E1DC}
  9
$EXTNAMES
290
     1
  9
$PSVPSCALE
 40
0.0
  9
$OLESTARTUP
290
     0
  0
ENDSEC
  0
SECTION
  2
CLASSES
  0
CLASS
  1
ACDBDICTIONARYWDFLT
  2
AcDbDictionaryWithDefault
  3
ObjectDBX Classes
 90
        0
280
     0
281
     0
  0
CLASS
  1
ACDBPLACEHOLDER
  2
AcDbPlaceHolder
  3
ObjectDBX Classes
 90
        0
280
     0
281
     0
  0
CLASS
  1
LAYOUT
  2
AcDbLayout
  3
ObjectDBX Classes
 90
        0
280
     0
281
     0
  0
CLASS
  1
DICTIONARYVAR
  2
AcDbDictionaryVar
  3
ObjectDBX Classes
 90
        0
280
     0
281
     0
  0
CLASS
  1
TABLESTYLE
  2
AcDbTableStyle
  3
ObjectDBX Classes
 90
     4095
280
     0
281
     0
  0
CLASS
  1
MATERIAL
  2
AcDbMaterial
  3
ObjectDBX Classes
 90
     1153
280
     0
281
     0
  0
CLASS
  1
VISUALSTYLE
  2
AcDbVisualStyle
  3
ObjectDBX Classes
 90
     4095
280
     0
281
     0
  0
CLASS
  1
SCALE
  2
AcDbScale
  3
ObjectDBX Classes
 90
     1153
280
     0
281
     0
  0
CLASS
  1
MLEADERSTYLE
  2
AcDbMLeaderStyle
  3
ACDB_MLEADERSTYLE_CLASS
 90
     4095
280
     0
281
     0
  0
CLASS
  1
CELLSTYLEMAP
  2
AcDbCellStyleMap
  3
ObjectDBX Classes
 90
     1152
280
     0
281
     0
  0
CLASS
  1
EXACXREFPANELOBJECT
  2
ExAcXREFPanelObject
  3
EXAC_ESW
 90
    33793
280
     0
281
     0
  0
CLASS
  1
NPOCOLLECTION
  2
AcDbImpNonPersistentObjectsCollection
  3
ObjectDBX Classes
 90
    33921
280
     0
281
     0
  0
CLASS
  1
LAYER_INDEX
  2
AcDbLayerIndex
  3
ObjectDBX Classes
 90
    32768
280
     0
281
     0
  0
CLASS
  1
SPATIAL_INDEX
  2
AcDbSpatialIndex
  3
ObjectDBX Classes
 90
    32768
280
     0
281
     0
  0
CLASS
  1
IDBUFFER
  2
AcDbIdBuffer
  3
ObjectDBX Classes
 90
    32768
280
     0
281
     0
  0
CLASS
  1
ACDBSECTIONVIEWSTYLE
  2
AcDbSectionViewStyle
  3
ObjectDBX Classes
 90
     1025
280
     0
281
     0
  0
CLASS
  1
ACDBDETAILVIEWSTYLE
  2
AcDbDetailViewStyle
  3
ObjectDBX Classes
 90
     1025
280
     0
281
     0
  0
CLASS
  1
VLO-VL
  2
vlo_VL
  3
VL|AutoLISP based application
 90
      129
280
     0
281
     0
  0
CLASS
  1
ACDB_MTEXTOBJECTCONTEXTDATA_CLASS
  2
AcDbMTextObjectContextData
  3
ObjectDBX Classes
 90
     1153
280
     0
281
     0
  0
CLASS
  1
DIMASSOC
  2
AcDbDimAssoc
  3
"AcDbDimAssoc|Product Desc:     AcDim ARX App For Dimension|Company:          Autodesk, Inc.|WEB Address:      www.autodesk.com"
 90
        0
280
     0
281
     0
  0
CLASS
  1
ACDB_ALDIMOBJECTCONTEXTDATA_CLASS
  2
AcDbAlignedDimensionObjectContextData
  3
ObjectDBX Classes
 90
     1153
280
     0
281
     0
  0
CLASS
  1
SORTENTSTABLE
  2
AcDbSortentsTable
  3
ObjectDBX Classes
 90
    32768
280
     0
281
     0
  0
ENDSEC
  0
SECTION
  2
TABLES
  0
TABLE
  2
VPORT
  5
8
330
0
100
AcDbSymbolTable
 70
     1
  0
VPORT
  5
94
330
8
100
AcDbSymbolTableRecord
100
AcDbViewportTableRecord
  2
*Active
 70
     0
 10
0.0
 20
0.0
 11
1.0
 21
1.0
 12
714.998772692227
 22
433.8928326421012
 13
0.0
 23
0.0
 14
0.5
 24
0.5
 15
0.5
 25
0.5
 16
0.0
 26
0.0
 36
1.0
 17
0.0
 27
0.0
 37
0.0
 40
300.0100083071338
 41
2.081939799331103
 42
50.0
 43
0.0
 44
0.0
 50
0.0
 51
0.0
 71
     0
 72
  1000
 73
     1
 74
     3
 75
     0
 76
     0
 77
     0
 78
     0
281
     0
 65
     1
110
0.0
120
0.0
130
0.0
111
1.0
121
0.0
131
0.0
112
0.0
122
1.0
132
0.0
 79
     0
146
0.0
1001
ACAD_NAV_VCDISPLAY
1070
     3
  0
ENDTAB
  0
TABLE
  2
LTYPE
  5
5
330
0
100
AcDbSymbolTable
 70
     4
  0
LTYPE
  5
14
330
5
100
AcDbSymbolTableRecord
100
AcDbLinetypeTableRecord
  2
ByBlock
 70
     0
  3

 72
    65
 73
     0
 40
0.0
  0
LTYPE
  5
15
330
5
100
AcDbSymbolTableRecord
100
AcDbLinetypeTableRecord
  2
ByLayer
 70
     0
  3

 72
    65
 73
     0
 40
0.0
  0
LTYPE
  5
16
330
5
100
AcDbSymbolTableRecord
100
AcDbLinetypeTableRecord
  2
Continuous
 70
     0
  3
Solid line
 72
    65
 73
     0
 40
0.0
  0
LTYPE
  5
24C
330
5
100
AcDbSymbolTableRecord
100
AcDbLinetypeTableRecord
  2
CENTER
 70
     0
  3
Center ____ _ ____ _ ____ _ ____ _ ____ _ ____
 72
    65
 73
     4
 40
50.8
 49
31.75
 74
     0
 49
-6.349999999999998
 74
     0
 49
6.349999999999998
 74
     0
 49
-6.349999999999998
 74
     0
  0
LTYPE
  5
24D
330
5
100
AcDbSymbolTableRecord
100
AcDbLinetypeTableRecord
  2
CENTER2
 70
     0
  3
Center (.5x) ___ _ ___ _ ___ _ ___ _ ___ _ ___
 72
    65
 73
     4
 40
28.575
 49
19.05
 74
     0
 49
-3.174999999999998
 74
     0
 49
3.174999999999998
 74
     0
 49
-3.174999999999998
 74
     0
  0
ENDTAB
  0
TABLE
  2
LAYER
  5
2
102
{ACAD_XDICTIONARY
360
18E
102
}
330
0
100
AcDbSymbolTable
 70
    10
  0
LAYER
  5
10
102
{ACAD_XDICTIONARY
360
E6
102
}
330
2
100
AcDbSymbolTableRecord
100
AcDbLayerTableRecord
  2
0
 70
     0
 62
     7
  6
Continuous
370
    -3
390
F
  0
LAYER
  5
24E
330
2
100
AcDbSymbolTableRecord
100
AcDbLayerTableRecord
  2
DEFPOINTS
 70
     0
 62
     7
  6
Continuous
290
     0
370
    -3
390
F
  0
LAYER
  5
24F
102
{ACAD_XDICTIONARY
360
250
102
}
330
2
100
AcDbSymbolTableRecord
100
AcDbLayerTableRecord
  2
1L
 70
     0
 62
     7
  6
Continuous
370
    18
390
F
  0
LAYER
  5
251
102
{ACAD_XDICTIONARY
360
252
102
}
330
2
100
AcDbSymbolTableRecord
100
AcDbLayerTableRecord
  2
7L
 70
     0
 62
     3
  6
Continuous
370
    25
390
F
  0
LAYER
  5
253
102
{ACAD_XDICTIONARY
360
254
102
}
330
2
100
AcDbSymbolTableRecord
100
AcDbLayerTableRecord
  2
5L
 70
     0
 62
     1
  6
Continuous
370
    30
390
F
  0
LAYER
  5
255
102
{ACAD_XDICTIONARY
360
256
102
}
330
2
100
AcDbSymbolTableRecord
100
AcDbLayerTableRecord
  2
中心线
 70
     0
 62
    10
  6
CENTER2
370
    13
390
F
  0
LAYER
  5
257
330
2
100
AcDbSymbolTableRecord
100
AcDbLayerTableRecord
  2
1.1L
 70
     0
 62
     7
  6
Continuous
370
    30
390
F
1001
AcAecLayerStandard
1000

1000

1001
AcCmTransparency
1071
        0
  0
LAYER
  5
258
330
2
100
AcDbSymbolTableRecord
100
AcDbLayerTableRecord
  2
dim
 70
     0
 62
    82
  6
Continuous
370
     9
390
F
  0
LAYER
  5
82F
102
{ACAD_XDICTIONARY
360
830
102
}
330
2
100
AcDbSymbolTableRecord
100
AcDbLayerTableRecord
  2
dim @ 1
 70
     0
 62
    82
  6
Continuous
370
     9
390
F
1001
AcadAnnotativeDecomposition
1000
AnnotativeData
1002
{
1070
     1
1070
     1
1002
}
  0
ENDTAB
  0
TABLE
  2
STYLE
  5
3
330
0
100
AcDbSymbolTable
 70
     3
  0
STYLE
  5
11
330
3
100
AcDbSymbolTableRecord
100
AcDbTextStyleTableRecord
  2
Standard
 70
     0
 40
0.0
 41
1.0
 50
0.0
 71
     0
 42
0.2
  3
arial.ttf
  4

1001
ACAD
1000
Arial
1071
       34
  0
STYLE
  5
DC
330
3
100
AcDbSymbolTableRecord
100
AcDbTextStyleTableRecord
  2
可註解
 70
     0
 40
0.0
 41
1.0
 50
0.0
 71
     0
 42
0.2
  3
arial.ttf
  4

1001
AcadAnnotative
1000
AnnotativeData
1002
{
1070
     1
1070
     1
1002
}
1001
ACAD
1000
Arial
1071
       34
  0
STYLE
  5
259
330
3
100
AcDbSymbolTableRecord
100
AcDbTextStyleTableRecord
  2
ROMANS
 70
     0
 40
0.0
 41
0.7
 50
0.0
 71
     0
 42
5.0
  3
ROMANS
  4

  0
ENDTAB
  0
TABLE
  2
VIEW
  5
6
330
0
100
AcDbSymbolTable
 70
     0
  0
ENDTAB
  0
TABLE
  2
UCS
  5
7
330
0
100
AcDbSymbolTable
 70
     0
  0
ENDTAB
  0
TABLE
  2
APPID
  5
9
330
0
100
AcDbSymbolTable
 70
    15
  0
APPID
  5
12
330
9
100
AcDbSymbolTableRecord
100
AcDbRegAppTableRecord
  2
ACAD
 70
     0
  0
APPID
  5
DD
330
9
100
AcDbSymbolTableRecord
100
AcDbRegAppTableRecord
  2
AcadAnnoPO
 70
     0
  0
APPID
  5
DE
330
9
100
AcDbSymbolTableRecord
100
AcDbRegAppTableRecord
  2
AcadAnnotative
 70
     0
  0
APPID
  5
DF
330
9
100
AcDbSymbolTableRecord
100
AcDbRegAppTableRecord
  2
ACAD_DSTYLE_DIMJAG
 70
     0
  0
APPID
  5
E0
330
9
100
AcDbSymbolTableRecord
100
AcDbRegAppTableRecord
  2
ACAD_DSTYLE_DIMTALN
 70
     0
  0
APPID
  5
107
330
9
100
AcDbSymbolTableRecord
100
AcDbRegAppTableRecord
  2
ACAD_MLEADERVER
 70
     0
  0
APPID
  5
1A6
330
9
100
AcDbSymbolTableRecord
100
AcDbRegAppTableRecord
  2
ACAD_NAV_VCDISPLAY
 70
     0
  0
APPID
  5
25F
330
9
100
AcDbSymbolTableRecord
100
AcDbRegAppTableRecord
  2
ACAD_DSTYLE_DIMBREAK
 70
     0
  0
APPID
  5
260
330
9
100
AcDbSymbolTableRecord
100
AcDbRegAppTableRecord
  2
AcAecLayerStandard
 70
     0
  0
APPID
  5
261
330
9
100
AcDbSymbolTableRecord
100
AcDbRegAppTableRecord
  2
ACAD_PSEXT
 70
     0
  0
APPID
  5
262
330
9
100
AcDbSymbolTableRecord
100
AcDbRegAppTableRecord
  2
AcCmTransparency
 70
     0
  0
APPID
  5
780
330
9
100
AcDbSymbolTableRecord
100
AcDbRegAppTableRecord
  2
AcadAnnotativeDecomposition
 70
     0
  0
APPID
  5
7CB
330
9
100
AcDbSymbolTableRecord
100
AcDbRegAppTableRecord
  2
ACAD_OBJECT_CHANGE_GUID
 70
     0
  0
APPID
  5
815
330
9
100
AcDbSymbolTableRecord
100
AcDbRegAppTableRecord
  2
AcadAnnoMonitorAlertIconDisabled
 70
     0
  0
APPID
  5
816
330
9
100
AcDbSymbolTableRecord
100
AcDbRegAppTableRecord
  2
ACAD_EXEMPT_FROM_CAD_STANDARDS
 70
     0
  0
ENDTAB
  0
TABLE
  2
DIMSTYLE
  5
A
330
0
100
AcDbSymbolTable
 70
     7
100
AcDbDimStyleTable
 71
     2
340
27
340
E1
  0
DIMSTYLE
105
27
330
A
100
AcDbSymbolTableRecord
100
AcDbDimStyleTableRecord
  2
Standard
 70
     0
340
11
  0
DIMSTYLE
105
E1
330
A
100
AcDbSymbolTableRecord
100
AcDbDimStyleTableRecord
  2
Annotative
 70
     0
 40
0.0
340
11
1001
AcadAnnotative
1000
AnnotativeData
1002
{
1070
     1
1070
     1
1002
}
1001
ACAD_DSTYLE_DIMJAG
1070
   388
1040
1.5
1001
ACAD_DSTYLE_DIMTALN
1070
   392
1070
     0
  0
DIMSTYLE
105
25A
330
A
100
AcDbSymbolTableRecord
100
AcDbDimStyleTableRecord
  2
ISO-25
 70
     0
 41
2.5
 42
0.35
 43
0.35
 44
0.5
 73
     0
 77
     1
 78
     8
140
2.5
141
5.0
143
0.03937007874016
147
1.0
171
     3
172
     1
176
     1
177
     1
178
     3
179
     2
271
     2
272
     2
274
     3
283
     0
284
     8
340
11
371
    15
372
    15
1001
ACAD_DSTYLE_DIMBREAK
1070
   391
1040
4.5
1001
ACAD_DSTYLE_DIMJAG
1070
   388
1040
1.5
1001
ACAD_DSTYLE_DIMTALN
1070
   392
1070
     0
  0
DIMSTYLE
105
25B
330
A
100
AcDbSymbolTableRecord
100
AcDbDimStyleTableRecord
  2
副本ISO-25-2
 70
     0
 41
2.5
 42
0.625
 43
3.75
 44
1.25
 73
     0
 74
     0
 77
     1
 78
     8
140
2.5
141
2.5
143
0.03937007874016
144
1.25
147
0.625
171
     3
172
     1
178
     2
271
     2
272
     2
274
     3
283
     0
284
     8
340
11
  0
DIMSTYLE
105
25C
330
A
100
AcDbSymbolTableRecord
100
AcDbDimStyleTableRecord
  2
副本 (2)ISO-25zhi
 70
     0
 41
1.25
 42
0.3
 43
0.5
 44
0.0
 73
     0
 74
     0
 77
     1
 78
     8
140
2.5
141
0.0
143
0.03937007874016
147
0.3
171
     3
172
     1
176
     1
177
     1
178
     3
179
     2
271
     2
272
     2
274
     3
283
     0
284
     8
340
11
1001
ACAD_DSTYLE_DIMJAG
1070
   388
1040
2.5
1001
ACAD_DSTYLE_DIMTALN
1070
   392
1070
     0
  0
DIMSTYLE
105
25D
102
{ACAD_REACTORS
330
5F0
330
5F6
330
602
330
608
330
60E
330
614
330
61A
330
622
330
627
330
639
102
}
330
A
100
AcDbSymbolTableRecord
100
AcDbDimStyleTableRecord
  2
副本 ISO-25
 70
     0
 41
5.0
 42
0.35
 43
0.35
 44
0.3
 73
     0
 74
     0
 77
     1
 78
     8
 79
     2
140
4.0
141
5.0
143
0.03937007874016
147
1.5
171
     3
172
     1
176
     1
177
     1
178
     3
179
     2
271
     2
272
     2
274
     3
283
     0
284
     8
340
11
371
    15
372
    15
1001
ACAD_DSTYLE_DIMBREAK
1070
   391
1040
3.0
1001
AcadAnnotative
1000
AnnotativeData
1002
{
1070
     1
1070
     1
1002
}
1001
ACAD_DSTYLE_DIMJAG
1070
   388
1040
1.5
1001
ACAD_DSTYLE_DIMTALN
1070
   392
1070
     0
  0
DIMSTYLE
105
25E
330
A
100
AcDbSymbolTableRecord
100
AcDbDimStyleTableRecord
  2
rrrrrr
 70
     0
 41
1.199999999999999
 42
0.29985
 43
0.35
 44
0.29985
 73
     0
 77
     1
 78
     8
 79
     2
140
1.5
141
5.0
143
0.03937007874016
147
0.29985
171
     3
172
     1
176
     1
177
     1
178
     3
179
     2
271
     2
272
     2
274
     3
283
     0
284
     8
340
11
371
    15
372
    15
1001
ACAD_DSTYLE_DIMBREAK
1070
   391
1040
3.0
1001
AcadAnnotative
1000
AnnotativeData
1002
{
1070
     1
1070
     1
1002
}
1001
ACAD_DSTYLE_DIMJAG
1070
   388
1040
1.5
1001
ACAD_DSTYLE_DIMTALN
1070
   392
1070
     0
  0
ENDTAB
  0
TABLE
  2
BLOCK_RECORD
  5
1
330
0
100
AcDbSymbolTable
 70
    22
  0
BLOCK_RECORD
  5
1F
102
{ACAD_XDICTIONARY
360
15D
102
}
330
1
100
AcDbSymbolTableRecord
100
AcDbBlockTableRecord
  2
*Model_Space
340
22
  0
BLOCK_RECORD
  5
58
330
1
100
AcDbSymbolTableRecord
100
AcDbBlockTableRecord
  2
*Paper_Space
340
59
  0
BLOCK_RECORD
  5
5D
330
1
100
AcDbSymbolTableRecord
100
AcDbBlockTableRecord
  2
*Paper_Space0
340
5E
  0
BLOCK_RECORD
  5
1D4
330
1
100
AcDbSymbolTableRecord
100
AcDbBlockTableRecord
  2
*D1
340
0
  0
BLOCK_RECORD
  5
1E0
330
1
100
AcDbSymbolTableRecord
100
AcDbBlockTableRecord
  2
*D2
340
0
  0
BLOCK_RECORD
  5
1EC
330
1
100
AcDbSymbolTableRecord
100
AcDbBlockTableRecord
  2
*D3
340
0
  0
BLOCK_RECORD
  5
1F8
330
1
100
AcDbSymbolTableRecord
100
AcDbBlockTableRecord
  2
*D4
340
0
  0
BLOCK_RECORD
  5
204
330
1
100
AcDbSymbolTableRecord
100
AcDbBlockTableRecord
  2
*D5
340
0
  0
BLOCK_RECORD
  5
210
330
1
100
AcDbSymbolTableRecord
100
AcDbBlockTableRecord
  2
*D6
340
0
  0
BLOCK_RECORD
  5
21C
330
1
100
AcDbSymbolTableRecord
100
AcDbBlockTableRecord
  2
*D7
340
0
  0
BLOCK_RECORD
  5
228
330
1
100
AcDbSymbolTableRecord
100
AcDbBlockTableRecord
  2
*D8
340
0
  0
BLOCK_RECORD
  5
234
330
1
100
AcDbSymbolTableRecord
100
AcDbBlockTableRecord
  2
*D9
340
0
  0
BLOCK_RECORD
  5
240
330
1
100
AcDbSymbolTableRecord
100
AcDbBlockTableRecord
  2
*D10
340
0
  0
BLOCK_RECORD
  5
68C
330
1
100
AcDbSymbolTableRecord
100
AcDbBlockTableRecord
  2
*D11
340
0
  0
BLOCK_RECORD
  5
698
330
1
100
AcDbSymbolTableRecord
100
AcDbBlockTableRecord
  2
*D12
340
0
  0
BLOCK_RECORD
  5
6A4
330
1
100
AcDbSymbolTableRecord
100
AcDbBlockTableRecord
  2
*D13
340
0
  0
BLOCK_RECORD
  5
6B0
330
1
100
AcDbSymbolTableRecord
100
AcDbBlockTableRecord
  2
*D14
340
0
  0
BLOCK_RECORD
  5
6BC
330
1
100
AcDbSymbolTableRecord
100
AcDbBlockTableRecord
  2
*D15
340
0
  0
BLOCK_RECORD
  5
6C8
330
1
100
AcDbSymbolTableRecord
100
AcDbBlockTableRecord
  2
*D16
340
0
  0
BLOCK_RECORD
  5
6D4
330
1
100
AcDbSymbolTableRecord
100
AcDbBlockTableRecord
  2
*D17
340
0
  0
BLOCK_RECORD
  5
6E0
330
1
100
AcDbSymbolTableRecord
100
AcDbBlockTableRecord
  2
*D18
340
0
  0
BLOCK_RECORD
  5
6EC
330
1
100
AcDbSymbolTableRecord
100
AcDbBlockTableRecord
  2
*D19
340
0
  0
BLOCK_RECORD
  5
6F8
330
1
100
AcDbSymbolTableRecord
100
AcDbBlockTableRecord
  2
*D20
340
0
  0
BLOCK_RECORD
  5
818
330
1
100
AcDbSymbolTableRecord
100
AcDbBlockTableRecord
  2
*D21
340
0
  0
ENDTAB
  0
ENDSEC
  0
SECTION
  2
BLOCKS
  0
BLOCK
  5
20
330
1F
100
AcDbEntity
  8
0
100
AcDbBlockBegin
  2
*Model_Space
 70
     0
 10
0.0
 20
0.0
 30
0.0
  3
*Model_Space
  1

  0
ENDBLK
  5
21
330
1F
100
AcDbEntity
  8
0
100
AcDbBlockEnd
  0
BLOCK
  5
5A
330
58
100
AcDbEntity
 67
     1
  8
0
100
AcDbBlockBegin
  2
*Paper_Space
 70
     0
 10
0.0
 20
0.0
 30
0.0
  3
*Paper_Space
  1

  0
ENDBLK
  5
5B
330
58
100
AcDbEntity
 67
     1
  8
0
100
AcDbBlockEnd
  0
BLOCK
  5
5F
330
5D
100
AcDbEntity
 67
     1
  8
0
100
AcDbBlockBegin
  2
*Paper_Space0
 70
     0
 10
0.0
 20
0.0
 30
0.0
  3
*Paper_Space0
  1

  0
ENDBLK
  5
60
330
5D
100
AcDbEntity
 67
     1
  8
0
100
AcDbBlockEnd
  0
BLOCK
  5
1D5
330
1D4
100
AcDbEntity
  8
0
100
AcDbBlockBegin
  2
*D1
 70
     1
 10
0.0
 20
0.0
 30
0.0
  3
*D1
  1

  0
LINE
  5
1D6
330
1D4
100
AcDbEntity
  8
dim
  6
ByBlock
 62
     1
370
    15
100
AcDbLine
 10
17889.48965436606
 20
-349.9003324555466
 30
0.0
 11
17889.48965436606
 21
-374.6571119128626
 31
0.0
  0
LINE
  5
1D7
330
1D4
100
AcDbEntity
  8
dim
  6
ByBlock
 62
     1
370
    15
100
AcDbLine
 10
17919.48965436604
 20
-349.9003324555275
 30
0.0
 11
17919.48965436604
 21
-374.6571119128626
 31
0.0
  0
LINE
  5
1D8
330
1D4
100
AcDbEntity
  8
dim
  6
ByBlock
 62
     1
370
    15
100
AcDbLine
 10
17891.48965436606
 20
-374.1573619128626
 30
0.0
 11
17917.48965436604
 21
-374.1573619128626
 31
0.0
  0
SOLID
  5
1D9
330
1D4
100
AcDbEntity
  8
dim
  6
ByBlock
 62
     1
100
AcDbTrace
 10
17891.48965436606
 20
-373.8240285795293
 30
0.0
 11
17891.48965436606
 21
-374.4906952461959
 31
0.0
 12
17889.48965436606
 22
-374.1573619128626
 32
0.0
 13
17889.48965436606
 23
-374.1573619128626
 33
0.0
  0
SOLID
  5
1DA
330
1D4
100
AcDbEntity
  8
dim
  6
ByBlock
 62
     1
100
AcDbTrace
 10
17917.48965436604
 20
-373.8240285795293
 30
0.0
 11
17917.48965436604
 21
-374.4906952461959
 31
0.0
 12
17919.48965436604
 22
-374.1573619128626
 32
0.0
 13
17919.48965436604
 23
-374.1573619128626
 33
0.0
  0
MTEXT
  5
1DB
330
1D4
100
AcDbEntity
  8
dim
  6
ByBlock
 62
     3
100
AcDbMText
 10
17904.48965436605
 20
-372.4076119128627
 30
0.0
 40
2.5
 41
0.0
 71
     5
 72
     1
  1
M30*1.5
 73
     1
 44
1.0
1001
ACAD
1000
MTEXTBEGIN
1070
    73
1070
     1
1070
    44
1040
1.0
1070
    74
1070
     0
1000
MTEXTEND
  0
POINT
  5
1DC
330
1D4
100
AcDbEntity
  8
DEFPOINTS
  6
ByBlock
 62
     0
100
AcDbPoint
 10
17889.48965436606
 20
-349.4005824555467
 30
0.0
  0
POINT
  5
1DD
330
1D4
100
AcDbEntity
  8
DEFPOINTS
  6
ByBlock
 62
     0
100
AcDbPoint
 10
17919.48965436604
 20
-349.4005824555275
 30
0.0
  0
POINT
  5
1DE
330
1D4
100
AcDbEntity
  8
DEFPOINTS
  6
ByBlock
 62
     0
100
AcDbPoint
 10
17919.48965436604
 20
-374.1573619128626
 30
0.0
  0
ENDBLK
  5
1DF
330
1D4
100
AcDbEntity
  8
0
100
AcDbBlockEnd
  0
BLOCK
  5
1E1
330
1E0
100
AcDbEntity
  8
0
100
AcDbBlockBegin
  2
*D2
 70
     1
 10
0.0
 20
0.0
 30
0.0
  3
*D2
  1

  0
LINE
  5
1E2
330
1E0
100
AcDbEntity
  8
dim
  6
ByBlock
 62
     1
370
    15
100
AcDbLine
 10
17898.48965436603
 20
-296.1958324555249
 30
0.0
 11
17898.48965436603
 21
-278.8620985669017
 31
0.0
  0
LINE
  5
1E3
330
1E0
100
AcDbEntity
  8
dim
  6
ByBlock
 62
     1
370
    15
100
AcDbLine
 10
17910.4896543661
 20
-296.1958324556021
 30
0.0
 11
17910.4896543661
 21
-278.8620985669017
 31
0.0
  0
LINE
  5
1E4
330
1E0
100
AcDbEntity
  8
dim
  6
ByBlock
 62
     1
370
    15
100
AcDbLine
 10
17900.48965436603
 20
-279.3618485669017
 30
0.0
 11
17908.4896543661
 21
-279.3618485669017
 31
0.0
  0
SOLID
  5
1E5
330
1E0
100
AcDbEntity
  8
dim
  6
ByBlock
 62
     1
100
AcDbTrace
 10
17900.48965436603
 20
-279.0285152335684
 30
0.0
 11
17900.48965436603
 21
-279.695181900235
 31
0.0
 12
17898.48965436603
 22
-279.3618485669017
 32
0.0
 13
17898.48965436603
 23
-279.3618485669017
 33
0.0
  0
SOLID
  5
1E6
330
1E0
100
AcDbEntity
  8
dim
  6
ByBlock
 62
     1
100
AcDbTrace
 10
17908.4896543661
 20
-279.0285152335684
 30
0.0
 11
17908.4896543661
 21
-279.695181900235
 31
0.0
 12
17910.4896543661
 22
-279.3618485669017
 32
0.0
 13
17910.4896543661
 23
-279.3618485669017
 33
0.0
  0
MTEXT
  5
1E7
330
1E0
100
AcDbEntity
  8
dim
  6
ByBlock
 62
     3
100
AcDbMText
 10
17904.48965436607
 20
-277.6120985669017
 30
0.0
 40
2.5
 41
0.0
 71
     5
 72
     1
  1
{\fISOCPEUR|b0|i0|c0|p34;%%C}12
 73
     1
 44
1.0
1001
ACAD
1000
MTEXTBEGIN
1070
    73
1070
     1
1070
    44
1040
1.0
1070
    74
1070
     0
1000
MTEXTEND
  0
POINT
  5
1E8
330
1E0
100
AcDbEntity
  8
DEFPOINTS
  6
ByBlock
 62
     0
100
AcDbPoint
 10
17898.48965436603
 20
-296.6955824555248
 30
0.0
  0
POINT
  5
1E9
330
1E0
100
AcDbEntity
  8
DEFPOINTS
  6
ByBlock
 62
     0
100
AcDbPoint
 10
17910.4896543661
 20
-296.6955824556021
 30
0.0
  0
POINT
  5
1EA
330
1E0
100
AcDbEntity
  8
DEFPOINTS
  6
ByBlock
 62
     0
100
AcDbPoint
 10
17910.4896543661
 20
-279.3618485669017
 30
0.0
  0
ENDBLK
  5
1EB
330
1E0
100
AcDbEntity
  8
0
100
AcDbBlockEnd
  0
BLOCK
  5
1ED
330
1EC
100
AcDbEntity
  8
0
100
AcDbBlockBegin
  2
*D3
 70
     1
 10
0.0
 20
0.0
 30
0.0
  3
*D3
  1

  0
LINE
  5
1EE
330
1EC
100
AcDbEntity
  8
dim
  6
ByBlock
 62
     1
370
    15
100
AcDbLine
 10
17904.98940436603
 20
-286.695582455533
 30
0.0
 11
17946.79230504028
 21
-286.695582455533
 31
0.0
  0
LINE
  5
1EF
330
1EC
100
AcDbEntity
  8
dim
  6
ByBlock
 62
     1
370
    15
100
AcDbLine
 10
17915.17940436603
 20
-359.6955824555303
 30
0.0
 11
17946.79230504028
 21
-359.6955824555303
 31
0.0
  0
LINE
  5
1F0
330
1EC
100
AcDbEntity
  8
dim
  6
ByBlock
 62
     1
370
    15
100
AcDbLine
 10
17946.29255504028
 20
-288.695582455533
 30
0.0
 11
17946.29255504028
 21
-357.6955824555303
 31
0.0
  0
SOLID
  5
1F1
330
1EC
100
AcDbEntity
  8
dim
  6
ByBlock
 62
     1
100
AcDbTrace
 10
17945.95922170695
 20
-288.695582455533
 30
0.0
 11
17946.62588837361
 21
-288.695582455533
 31
0.0
 12
17946.29255504028
 22
-286.695582455533
 32
0.0
 13
17946.29255504028
 23
-286.695582455533
 33
0.0
  0
SOLID
  5
1F2
330
1EC
100
AcDbEntity
  8
dim
  6
ByBlock
 62
     1
100
AcDbTrace
 10
17945.95922170695
 20
-357.6955824555303
 30
0.0
 11
17946.62588837361
 21
-357.6955824555303
 31
0.0
 12
17946.29255504028
 22
-359.6955824555303
 32
0.0
 13
17946.29255504028
 23
-359.6955824555303
 33
0.0
  0
MTEXT
  5
1F3
330
1EC
100
AcDbEntity
  8
dim
  6
ByBlock
 62
     3
100
AcDbMText
 10
17944.54280504028
 20
-323.1955824555312
 30
0.0
 40
2.5
 41
0.0
 71
     5
 72
     1
  1
73
 11
0.0000000000000001
 21
1.0
 31
0.0
 73
     1
 44
1.0
1001
ACAD
1000
MTEXTBEGIN
1070
    73
1070
     1
1070
    44
1040
1.0
1070
    74
1070
     0
1000
MTEXTEND
  0
POINT
  5
1F4
330
1EC
100
AcDbEntity
  8
DEFPOINTS
  6
ByBlock
 62
     0
100
AcDbPoint
 10
17904.48965436603
 20
-286.695582455533
 30
0.0
  0
POINT
  5
1F5
330
1EC
100
AcDbEntity
  8
DEFPOINTS
  6
ByBlock
 62
     0
100
AcDbPoint
 10
17914.67965436604
 20
-359.6955824555303
 30
0.0
  0
POINT
  5
1F6
330
1EC
100
AcDbEntity
  8
DEFPOINTS
  6
ByBlock
 62
     0
100
AcDbPoint
 10
17946.29255504028
 20
-359.6955824555303
 30
0.0
  0
ENDBLK
  5
1F7
330
1EC
100
AcDbEntity
  8
0
100
AcDbBlockEnd
  0
BLOCK
  5
1F9
330
1F8
100
AcDbEntity
  8
0
100
AcDbBlockBegin
  2
*D4
 70
     1
 10
0.0
 20
0.0
 30
0.0
  3
*D4
  1

  0
LINE
  5
1FA
330
1F8
100
AcDbEntity
  8
dim
  6
ByBlock
 62
     1
370
    15
100
AcDbLine
 10
17915.17940436603
 20
-359.6955824555303
 30
0.0
 11
17924.96347645707
 21
-359.6955824555303
 31
0.0
  0
LINE
  5
1FB
330
1F8
100
AcDbEntity
  8
dim
  6
ByBlock
 62
     1
370
    15
100
AcDbLine
 10
17919.08940436603
 20
-350.3005824555281
 30
0.0
 11
17924.96347645707
 21
-350.3005824555281
 31
0.0
  0
LINE
  5
1FC
330
1F8
100
AcDbEntity
  8
dim
  6
ByBlock
 62
     1
370
    15
100
AcDbLine
 10
17924.46372645708
 20
-357.6955824555303
 30
0.0
 11
17924.46372645708
 21
-352.300582455528
 31
0.0
  0
SOLID
  5
1FD
330
1F8
100
AcDbEntity
  8
dim
  6
ByBlock
 62
     1
100
AcDbTrace
 10
17924.13039312374
 20
-357.6955824555303
 30
0.0
 11
17924.79705979041
 21
-357.6955824555303
 31
0.0
 12
17924.46372645708
 22
-359.6955824555303
 32
0.0
 13
17924.46372645708
 23
-359.6955824555303
 33
0.0
  0
SOLID
  5
1FE
330
1F8
100
AcDbEntity
  8
dim
  6
ByBlock
 62
     1
100
AcDbTrace
 10
17924.13039312374
 20
-352.300582455528
 30
0.0
 11
17924.79705979041
 21
-352.300582455528
 31
0.0
 12
17924.46372645708
 22
-350.3005824555281
 32
0.0
 13
17924.46372645708
 23
-350.3005824555281
 33
0.0
  0
MTEXT
  5
1FF
330
1F8
100
AcDbEntity
  8
dim
  6
ByBlock
 62
     3
100
AcDbMText
 10
17922.71397645708
 20
-354.9980824555277
 30
0.0
 40
2.5
 41
0.0
 71
     5
 72
     1
  1
9.4
 11
0.0000000000000001
 21
1.0
 31
0.0
 73
     1
 44
1.0
1001
ACAD
1000
MTEXTBEGIN
1070
    73
1070
     1
1070
    44
1040
1.0
1070
    74
1070
     0
1000
MTEXTEND
  0
POINT
  5
200
330
1F8
100
AcDbEntity
  8
DEFPOINTS
  6
ByBlock
 62
     0
100
AcDbPoint
 10
17914.67965436604
 20
-359.6955824555303
 30
0.0
  0
POINT
  5
201
330
1F8
100
AcDbEntity
  8
DEFPOINTS
  6
ByBlock
 62
     0
100
AcDbPoint
 10
17918.58965436603
 20
-350.3005824555281
 30
0.0
  0
POINT
  5
202
330
1F8
100
AcDbEntity
  8
DEFPOINTS
  6
ByBlock
 62
     0
100
AcDbPoint
 10
17924.46372645708
 20
-350.3005824555281
 30
0.0
  0
ENDBLK
  5
203
330
1F8
100
AcDbEntity
  8
0
100
AcDbBlockEnd
  0
BLOCK
  5
205
330
204
100
AcDbEntity
  8
0
100
AcDbBlockBegin
  2
*D5
 70
     1
 10
0.0
 20
0.0
 30
0.0
  3
*D5
  1

  0
LINE
  5
206
330
204
100
AcDbEntity
  8
dim
  6
ByBlock
 62
     1
370
    15
100
AcDbLine
 10
17915.17940436603
 20
-359.6955824555303
 30
0.0
 11
17929.51047290406
 21
-359.6955824555303
 31
0.0
  0
LINE
  5
207
330
204
100
AcDbEntity
  8
dim
  6
ByBlock
 62
     1
370
    15
100
AcDbLine
 10
17918.98940436603
 20
-305.7005824555276
 30
0.0
 11
17929.51047290406
 21
-305.7005824555276
 31
0.0
  0
LINE
  5
208
330
204
100
AcDbEntity
  8
dim
  6
ByBlock
 62
     1
370
    15
100
AcDbLine
 10
17929.01072290406
 20
-357.6955824555303
 30
0.0
 11
17929.01072290406
 21
-307.7005824555276
 31
0.0
  0
SOLID
  5
209
330
204
100
AcDbEntity
  8
dim
  6
ByBlock
 62
     1
100
AcDbTrace
 10
17928.67738957073
 20
-357.6955824555303
 30
0.0
 11
17929.34405623739
 21
-357.6955824555303
 31
0.0
 12
17929.01072290406
 22
-359.6955824555303
 32
0.0
 13
17929.01072290406
 23
-359.6955824555303
 33
0.0
  0
SOLID
  5
20A
330
204
100
AcDbEntity
  8
dim
  6
ByBlock
 62
     1
100
AcDbTrace
 10
17928.67738957073
 20
-307.7005824555276
 30
0.0
 11
17929.34405623739
 21
-307.7005824555276
 31
0.0
 12
17929.01072290406
 22
-305.7005824555276
 32
0.0
 13
17929.01072290406
 23
-305.7005824555276
 33
0.0
  0
MTEXT
  5
20B
330
204
100
AcDbEntity
  8
dim
  6
ByBlock
 62
     3
100
AcDbMText
 10
17927.26097290406
 20
-332.6980824555285
 30
0.0
 40
2.5
 41
0.0
 71
     5
 72
     1
  1
54
 11
0.0000000000000001
 21
1.0
 31
0.0
 73
     1
 44
1.0
1001
ACAD
1000
MTEXTBEGIN
1070
    73
1070
     1
1070
    44
1040
1.0
1070
    74
1070
     0
1000
MTEXTEND
  0
POINT
  5
20C
330
204
100
AcDbEntity
  8
DEFPOINTS
  6
ByBlock
 62
     0
100
AcDbPoint
 10
17914.67965436604
 20
-359.6955824555303
 30
0.0
  0
POINT
  5
20D
330
204
100
AcDbEntity
  8
DEFPOINTS
  6
ByBlock
 62
     0
100
AcDbPoint
 10
17918.48965436603
 20
-305.7005824555276
 30
0.0
  0
POINT
  5
20E
330
204
100
AcDbEntity
  8
DEFPOINTS
  6
ByBlock
 62
     0
100
AcDbPoint
 10
17929.01072290406
 20
-305.7005824555276
 30
0.0
  0
ENDBLK
  5
20F
330
204
100
AcDbEntity
  8
0
100
AcDbBlockEnd
  0
BLOCK
  5
211
330
210
100
AcDbEntity
  8
0
100
AcDbBlockBegin
  2
*D6
 70
     1
 10
0.0
 20
0.0
 30
0.0
  3
*D6
  1

  0
LINE
  5
212
330
210
100
AcDbEntity
  8
dim
  6
ByBlock
 62
     1
370
    15
100
AcDbLine
 10
17913.98940436603
 20
-297.7005824555277
 30
0.0
 11
17934.67918907966
 21
-297.7005824555277
 31
0.0
  0
LINE
  5
213
330
210
100
AcDbEntity
  8
dim
  6
ByBlock
 62
     1
370
    15
100
AcDbLine
 10
17915.17940436603
 20
-359.6955824555303
 30
0.0
 11
17934.67918907966
 21
-359.6955824555303
 31
0.0
  0
LINE
  5
214
330
210
100
AcDbEntity
  8
dim
  6
ByBlock
 62
     1
370
    15
100
AcDbLine
 10
17934.17943907966
 20
-299.7005824555277
 30
0.0
 11
17934.17943907966
 21
-357.6955824555303
 31
0.0
  0
SOLID
  5
215
330
210
100
AcDbEntity
  8
dim
  6
ByBlock
 62
     1
100
AcDbTrace
 10
17933.84610574633
 20
-299.7005824555277
 30
0.0
 11
17934.51277241299
 21
-299.7005824555277
 31
0.0
 12
17934.17943907966
 22
-297.7005824555277
 32
0.0
 13
17934.17943907966
 23
-297.7005824555277
 33
0.0
  0
SOLID
  5
216
330
210
100
AcDbEntity
  8
dim
  6
ByBlock
 62
     1
100
AcDbTrace
 10
17933.84610574633
 20
-357.6955824555303
 30
0.0
 11
17934.51277241299
 21
-357.6955824555303
 31
0.0
 12
17934.17943907966
 22
-359.6955824555303
 32
0.0
 13
17934.17943907966
 23
-359.6955824555303
 33
0.0
  0
MTEXT
  5
217
330
210
100
AcDbEntity
  8
dim
  6
ByBlock
 62
     3
100
AcDbMText
 10
17932.42968907966
 20
-328.6980824555285
 30
0.0
 40
2.5
 41
0.0
 71
     5
 72
     1
  1
62
 11
0.0000000000000001
 21
1.0
 31
0.0
 73
     1
 44
1.0
1001
ACAD
1000
MTEXTBEGIN
1070
    73
1070
     1
1070
    44
1040
1.0
1070
    74
1070
     0
1000
MTEXTEND
  0
POINT
  5
218
330
210
100
AcDbEntity
  8
DEFPOINTS
  6
ByBlock
 62
     0
100
AcDbPoint
 10
17913.48965436603
 20
-297.7005824555277
 30
0.0
  0
POINT
  5
219
330
210
100
AcDbEntity
  8
DEFPOINTS
  6
ByBlock
 62
     0
100
AcDbPoint
 10
17914.67965436604
 20
-359.6955824555303
 30
0.0
  0
POINT
  5
21A
330
210
100
AcDbEntity
  8
DEFPOINTS
  6
ByBlock
 62
     0
100
AcDbPoint
 10
17934.17943907966
 20
-359.6955824555303
 30
0.0
  0
ENDBLK
  5
21B
330
210
100
AcDbEntity
  8
0
100
AcDbBlockEnd
  0
BLOCK
  5
21D
330
21C
100
AcDbEntity
  8
0
100
AcDbBlockBegin
  2
*D7
 70
     1
 10
0.0
 20
0.0
 30
0.0
  3
*D7
  1

  0
LINE
  5
21E
330
21C
100
AcDbEntity
  8
dim
  6
ByBlock
 62
     1
370
    15
100
AcDbLine
 10
17910.23940436603
 20
-290.695582455533
 30
0.0
 11
17940.98597988047
 21
-290.695582455533
 31
0.0
  0
LINE
  5
21F
330
21C
100
AcDbEntity
  8
dim
  6
ByBlock
 62
     1
370
    15
100
AcDbLine
 10
17915.17940436603
 20
-359.6955824555303
 30
0.0
 11
17940.98597988047
 21
-359.6955824555303
 31
0.0
  0
LINE
  5
220
330
21C
100
AcDbEntity
  8
dim
  6
ByBlock
 62
     1
370
    15
100
AcDbLine
 10
17940.48622988047
 20
-292.695582455533
 30
0.0
 11
17940.48622988047
 21
-357.6955824555303
 31
0.0
  0
SOLID
  5
221
330
21C
100
AcDbEntity
  8
dim
  6
ByBlock
 62
     1
100
AcDbTrace
 10
17940.15289654713
 20
-292.695582455533
 30
0.0
 11
17940.8195632138
 21
-292.695582455533
 31
0.0
 12
17940.48622988047
 22
-290.695582455533
 32
0.0
 13
17940.48622988047
 23
-290.695582455533
 33
0.0
  0
SOLID
  5
222
330
21C
100
AcDbEntity
  8
dim
  6
ByBlock
 62
     1
100
AcDbTrace
 10
17940.15289654713
 20
-357.6955824555303
 30
0.0
 11
17940.8195632138
 21
-357.6955824555303
 31
0.0
 12
17940.48622988047
 22
-359.6955824555303
 32
0.0
 13
17940.48622988047
 23
-359.6955824555303
 33
0.0
  0
MTEXT
  5
223
330
21C
100
AcDbEntity
  8
dim
  6
ByBlock
 62
     3
100
AcDbMText
 10
17938.73647988047
 20
-325.1955824555312
 30
0.0
 40
2.5
 41
0.0
 71
     5
 72
     1
  1
69
 11
0.0000000000000001
 21
1.0
 31
0.0
 73
     1
 44
1.0
1001
ACAD
1000
MTEXTBEGIN
1070
    73
1070
     1
1070
    44
1040
1.0
1070
    74
1070
     0
1000
MTEXTEND
  0
POINT
  5
224
330
21C
100
AcDbEntity
  8
DEFPOINTS
  6
ByBlock
 62
     0
100
AcDbPoint
 10
17909.73965436603
 20
-290.695582455533
 30
0.0
  0
POINT
  5
225
330
21C
100
AcDbEntity
  8
DEFPOINTS
  6
ByBlock
 62
     0
100
AcDbPoint
 10
17914.67965436604
 20
-359.6955824555303
 30
0.0
  0
POINT
  5
226
330
21C
100
AcDbEntity
  8
DEFPOINTS
  6
ByBlock
 62
     0
100
AcDbPoint
 10
17940.48622988047
 20
-359.6955824555303
 30
0.0
  0
ENDBLK
  5
227
330
21C
100
AcDbEntity
  8
0
100
AcDbBlockEnd
  0
BLOCK
  5
229
330
228
100
AcDbEntity
  8
0
100
AcDbBlockBegin
  2
*D8
 70
     1
 10
0.0
 20
0.0
 30
0.0
  3
*D8
  1

  0
LINE
  5
22A
330
228
100
AcDbEntity
  8
dim
  6
ByBlock
 62
     1
370
    15
100
AcDbLine
 10
17890.38965436604
 20
-358.8453324555288
 30
0.0
 11
17890.38965436604
 21
-368.8922009169568
 31
0.0
  0
LINE
  5
22B
330
228
100
AcDbEntity
  8
dim
  6
ByBlock
 62
     1
370
    15
100
AcDbLine
 10
17918.58965436603
 20
-358.8453324555297
 30
0.0
 11
17918.58965436603
 21
-368.8922009169568
 31
0.0
  0
LINE
  5
22C
330
228
100
AcDbEntity
  8
dim
  6
ByBlock
 62
     1
370
    15
100
AcDbLine
 10
17892.38965436604
 20
-368.3924509169568
 30
0.0
 11
17916.58965436603
 21
-368.3924509169568
 31
0.0
  0
SOLID
  5
22D
330
228
100
AcDbEntity
  8
dim
  6
ByBlock
 62
     1
100
AcDbTrace
 10
17892.38965436604
 20
-368.0591175836235
 30
0.0
 11
17892.38965436604
 21
-368.7257842502901
 31
0.0
 12
17890.38965436604
 22
-368.3924509169568
 32
0.0
 13
17890.38965436604
 23
-368.3924509169568
 33
0.0
  0
SOLID
  5
22E
330
228
100
AcDbEntity
  8
dim
  6
ByBlock
 62
     1
100
AcDbTrace
 10
17916.58965436603
 20
-368.0591175836235
 30
0.0
 11
17916.58965436603
 21
-368.7257842502901
 31
0.0
 12
17918.58965436603
 22
-368.3924509169568
 32
0.0
 13
17918.58965436603
 23
-368.3924509169568
 33
0.0
  0
MTEXT
  5
22F
330
228
100
AcDbEntity
  8
dim
  6
ByBlock
 62
     3
100
AcDbMText
 10
17904.48965436603
 20
-365.8947842502902
 30
0.0
 40
2.5
 41
0.0
 71
     5
 72
     1
  1
{\fISOCPEUR|b0|i0|c0|p34;%%C}28.2{\H0.7x;\S 0^ -0.1;}
 73
     1
 44
1.0
1001
ACAD
1000
MTEXTBEGIN
1070
    73
1070
     1
1070
    44
1040
1.0
1070
    74
1070
     0
1000
MTEXTEND
  0
POINT
  5
230
330
228
100
AcDbEntity
  8
DEFPOINTS
  6
ByBlock
 62
     0
100
AcDbPoint
 10
17890.38965436604
 20
-358.3455824555288
 30
0.0
  0
POINT
  5
231
330
228
100
AcDbEntity
  8
DEFPOINTS
  6
ByBlock
 62
     0
100
AcDbPoint
 10
17918.58965436603
 20
-358.3455824555297
 30
0.0
  0
POINT
  5
232
330
228
100
AcDbEntity
  8
DEFPOINTS
  6
ByBlock
 62
     0
100
AcDbPoint
 10
17918.58965436603
 20
-368.3924509169568
 30
0.0
  0
ENDBLK
  5
233
330
228
100
AcDbEntity
  8
0
100
AcDbBlockEnd
  0
BLOCK
  5
235
330
234
100
AcDbEntity
  8
0
100
AcDbBlockBegin
  2
*D9
 70
     1
 10
0.0
 20
0.0
 30
0.0
  3
*D9
  1

  0
LINE
  5
236
330
234
100
AcDbEntity
  8
dim
  6
ByBlock
 62
     1
370
    15
100
AcDbLine
 10
17911.21515951061
 20
-406.7465361015851
 30
0.0
 11
17939.09822299731
 21
-406.7465361015851
 31
0.0
  0
LINE
  5
237
330
234
100
AcDbEntity
  8
dim
  6
ByBlock
 62
     1
370
    15
100
AcDbLine
 10
17911.21515951061
 20
-430.7465361015841
 30
0.0
 11
17939.09822299731
 21
-430.7465361015841
 31
0.0
  0
LINE
  5
238
330
234
100
AcDbEntity
  8
dim
  6
ByBlock
 62
     1
370
    15
100
AcDbLine
 10
17938.59847299731
 20
-408.7465361015851
 30
0.0
 11
17938.59847299731
 21
-428.7465361015843
 31
0.0
  0
SOLID
  5
239
330
234
100
AcDbEntity
  8
dim
  6
ByBlock
 62
     1
100
AcDbTrace
 10
17938.26513966398
 20
-408.7465361015851
 30
0.0
 11
17938.93180633063
 21
-408.7465361015851
 31
0.0
 12
17938.59847299731
 22
-406.7465361015851
 32
0.0
 13
17938.59847299731
 23
-406.7465361015851
 33
0.0
  0
SOLID
  5
23A
330
234
100
AcDbEntity
  8
dim
  6
ByBlock
 62
     1
100
AcDbTrace
 10
17938.26513966398
 20
-428.7465361015843
 30
0.0
 11
17938.93180633063
 21
-428.7465361015843
 31
0.0
 12
17938.59847299731
 22
-430.7465361015841
 32
0.0
 13
17938.59847299731
 23
-430.7465361015841
 33
0.0
  0
MTEXT
  5
23B
330
234
100
AcDbEntity
  8
dim
  6
ByBlock
 62
     3
100
AcDbMText
 10
17936.53622299731
 20
-418.7465361015843
 30
0.0
 40
2.5
 41
0.0
 71
     5
 72
     1
  1
{\H1.25x;24}
 11
0.0000000000000001
 21
1.0
 31
0.0
 73
     1
 44
1.0
1001
ACAD
1000
MTEXTBEGIN
1070
    73
1070
     1
1070
    44
1040
1.0
1070
    74
1070
     0
1000
MTEXTEND
  0
POINT
  5
23C
330
234
100
AcDbEntity
  8
DEFPOINTS
  6
ByBlock
 62
     0
100
AcDbPoint
 10
17910.71540951062
 20
-406.7465361015851
 30
0.0
  0
POINT
  5
23D
330
234
100
AcDbEntity
  8
DEFPOINTS
  6
ByBlock
 62
     0
100
AcDbPoint
 10
17910.71540951062
 20
-430.7465361015841
 30
0.0
  0
POINT
  5
23E
330
234
100
AcDbEntity
  8
DEFPOINTS
  6
ByBlock
 62
     0
100
AcDbPoint
 10
17938.59847299731
 20
-430.7465361015841
 30
0.0
  0
ENDBLK
  5
23F
330
234
100
AcDbEntity
  8
0
100
AcDbBlockEnd
  0
BLOCK
  5
241
330
240
100
AcDbEntity
  8
0
100
AcDbBlockBegin
  2
*D10
 70
     1
 10
0.0
 20
0.0
 30
0.0
  3
*D10
  1

  0
LINE
  5
242
330
240
100
AcDbEntity
  8
dim
  6
ByBlock
 62
     1
370
    15
100
AcDbLine
 10
17907.86995524508
 20
-413.7465361015832
 30
0.0
 11
17931.81589818318
 21
-413.7465361015832
 31
0.0
  0
LINE
  5
243
330
240
100
AcDbEntity
  8
dim
  6
ByBlock
 62
     1
370
    15
100
AcDbLine
 10
17907.86995524509
 20
-423.7465361015853
 30
0.0
 11
17931.81589818318
 21
-423.7465361015853
 31
0.0
  0
LINE
  5
244
330
240
100
AcDbEntity
  8
dim
  6
ByBlock
 62
     1
370
    15
100
AcDbLine
 10
17931.31614818318
 20
-415.746536101583
 30
0.0
 11
17931.31614818318
 21
-421.7465361015853
 31
0.0
  0
SOLID
  5
245
330
240
100
AcDbEntity
  8
dim
  6
ByBlock
 62
     1
100
AcDbTrace
 10
17930.98281484985
 20
-415.746536101583
 30
0.0
 11
17931.64948151652
 21
-415.746536101583
 31
0.0
 12
17931.31614818318
 22
-413.7465361015832
 32
0.0
 13
17931.31614818318
 23
-413.7465361015832
 33
0.0
  0
SOLID
  5
246
330
240
100
AcDbEntity
  8
dim
  6
ByBlock
 62
     1
100
AcDbTrace
 10
17930.98281484985
 20
-421.7465361015853
 30
0.0
 11
17931.64948151652
 21
-421.7465361015853
 31
0.0
 12
17931.31614818318
 22
-423.7465361015853
 32
0.0
 13
17931.31614818318
 23
-423.7465361015853
 33
0.0
  0
MTEXT
  5
247
330
240
100
AcDbEntity
  8
dim
  6
ByBlock
 62
     3
100
AcDbMText
 10
17929.25389818318
 20
-418.7465361015813
 30
0.0
 40
2.5
 41
0.0
 71
     5
 72
     1
  1
{\H1.25x;10}
 11
0.0000000000000001
 21
1.0
 31
0.0
 73
     1
 44
1.0
1001
ACAD
1000
MTEXTBEGIN
1070
    73
1070
     1
1070
    44
1040
1.0
1070
    74
1070
     0
1000
MTEXTEND
  0
POINT
  5
248
330
240
100
AcDbEntity
  8
DEFPOINTS
  6
ByBlock
 62
     0
100
AcDbPoint
 10
17907.37020524508
 20
-413.7465361015832
 30
0.0
  0
POINT
  5
249
330
240
100
AcDbEntity
  8
DEFPOINTS
  6
ByBlock
 62
     0
100
AcDbPoint
 10
17907.37020524509
 20
-423.7465361015853
 30
0.0
  0
POINT
  5
24A
330
240
100
AcDbEntity
  8
DEFPOINTS
  6
ByBlock
 62
     0
100
AcDbPoint
 10
17931.31614818318
 20
-423.7465361015853
 30
0.0
  0
ENDBLK
  5
24B
330
240
100
AcDbEntity
  8
0
100
AcDbBlockEnd
  0
BLOCK
  5
68D
330
68C
100
AcDbEntity
  8
0
100
AcDbBlockBegin
  2
*D11
 70
     1
 10
0.0
 20
0.0
 30
0.0
  3
*D11
  1

  0
LINE
  5
716
330
68C
100
AcDbEntity
  8
dim
  6
ByBlock
 62
     1
370
    15
100
AcDbLine
 10
709.0157397890269
 20
469.0954846941843
 30
0.0
 11
709.0157397890269
 21
486.4292185828073
 31
0.0
  0
LINE
  5
717
330
68C
100
AcDbEntity
  8
dim
  6
ByBlock
 62
     1
370
    15
100
AcDbLine
 10
721.015739789096
 20
469.0954846941069
 30
0.0
 11
721.015739789096
 21
486.4292185828073
 31
0.0
  0
LINE
  5
718
330
68C
100
AcDbEntity
  8
dim
  6
ByBlock
 62
     1
370
    15
100
AcDbLine
 10
711.0157397890271
 20
485.9294685828073
 30
0.0
 11
719.0157397890962
 21
485.9294685828073
 31
0.0
  0
SOLID
  5
719
330
68C
100
AcDbEntity
  8
dim
  6
ByBlock
 62
     1
100
AcDbTrace
 10
711.0157397890271
 20
486.2628019161406
 30
0.0
 11
711.0157397890271
 21
485.5961352494741
 31
0.0
 12
709.0157397890269
 22
485.9294685828073
 32
0.0
 13
709.0157397890269
 23
485.9294685828073
 33
0.0
  0
SOLID
  5
71A
330
68C
100
AcDbEntity
  8
dim
  6
ByBlock
 62
     1
100
AcDbTrace
 10
719.0157397890962
 20
486.2628019161406
 30
0.0
 11
719.0157397890962
 21
485.5961352494741
 31
0.0
 12
721.015739789096
 22
485.9294685828073
 32
0.0
 13
721.015739789096
 23
485.9294685828073
 33
0.0
  0
MTEXT
  5
71B
330
68C
100
AcDbEntity
  8
dim
  6
ByBlock
 62
     3
100
AcDbMText
 10
715.0157397890634
 20
487.6843345446081
 30
0.0
 40
2.5
 41
0.0
 71
     5
 72
     1
  1
{\fISOCPEUR|b0|i0|c0|p34;%%C}12
 73
     1
 44
1.0
1001
ACAD
1000
MTEXTBEGIN
1070
    73
1070
     1
1070
    44
1040
1.0
1070
    74
1070
     0
1000
MTEXTEND
  0
POINT
  5
71C
330
68C
100
AcDbEntity
  8
DEFPOINTS
  6
ByBlock
 62
     0
100
AcDbPoint
 10
709.0157397890269
 20
468.5957346941843
 30
0.0
  0
POINT
  5
71D
330
68C
100
AcDbEntity
  8
DEFPOINTS
  6
ByBlock
 62
     0
100
AcDbPoint
 10
721.015739789096
 20
468.5957346941069
 30
0.0
  0
POINT
  5
71E
330
68C
100
AcDbEntity
  8
DEFPOINTS
  6
ByBlock
 62
     0
100
AcDbPoint
 10
721.015739789096
 20
485.9294685828073
 30
0.0
  0
ENDBLK
  5
68E
330
68C
100
AcDbEntity
  8
0
100
AcDbBlockEnd
  0
BLOCK
  5
699
330
698
100
AcDbEntity
  8
0
100
AcDbBlockBegin
  2
*D12
 70
     1
 10
0.0
 20
0.0
 30
0.0
  3
*D12
  1

  0
LINE
  5
71F
330
698
100
AcDbEntity
  8
dim
  6
ByBlock
 62
     1
370
    15
100
AcDbLine
 10
715.5154897890269
 20
478.5957346941761
 30
0.0
 11
757.3183904632705
 21
478.5957346941761
 31
0.0
  0
LINE
  5
720
330
698
100
AcDbEntity
  8
dim
  6
ByBlock
 62
     1
370
    15
100
AcDbLine
 10
725.7054897890292
 20
405.5957346941788
 30
0.0
 11
757.3183904632705
 21
405.5957346941788
 31
0.0
  0
LINE
  5
721
330
698
100
AcDbEntity
  8
dim
  6
ByBlock
 62
     1
370
    15
100
AcDbLine
 10
756.8186404632707
 20
476.595734694176
 30
0.0
 11
756.8186404632707
 21
407.5957346941788
 31
0.0
  0
SOLID
  5
722
330
698
100
AcDbEntity
  8
dim
  6
ByBlock
 62
     1
100
AcDbTrace
 10
756.4853071299372
 20
476.595734694176
 30
0.0
 11
757.1519737966041
 21
476.595734694176
 31
0.0
 12
756.8186404632707
 22
478.5957346941761
 32
0.0
 13
756.8186404632707
 23
478.5957346941761
 33
0.0
  0
SOLID
  5
723
330
698
100
AcDbEntity
  8
dim
  6
ByBlock
 62
     1
100
AcDbTrace
 10
756.4853071299372
 20
407.5957346941788
 30
0.0
 11
757.1519737966041
 21
407.5957346941788
 31
0.0
 12
756.8186404632707
 22
405.5957346941788
 32
0.0
 13
756.8186404632707
 23
405.5957346941788
 33
0.0
  0
MTEXT
  5
724
330
698
100
AcDbEntity
  8
dim
  6
ByBlock
 62
     3
100
AcDbMText
 10
755.0416053336662
 20
442.0957346941778
 30
0.0
 40
2.5
 41
0.0
 71
     5
 72
     1
  1
73
 11
0.0000000000000001
 21
1.0
 31
0.0
 73
     1
 44
1.0
1001
ACAD
1000
MTEXTBEGIN
1070
    73
1070
     1
1070
    44
1040
1.0
1070
    74
1070
     0
1000
MTEXTEND
  0
POINT
  5
725
330
698
100
AcDbEntity
  8
DEFPOINTS
  6
ByBlock
 62
     0
100
AcDbPoint
 10
715.0157397890271
 20
478.5957346941761
 30
0.0
  0
POINT
  5
726
330
698
100
AcDbEntity
  8
DEFPOINTS
  6
ByBlock
 62
     0
100
AcDbPoint
 10
725.2057397890292
 20
405.5957346941788
 30
0.0
  0
POINT
  5
727
330
698
100
AcDbEntity
  8
DEFPOINTS
  6
ByBlock
 62
     0
100
AcDbPoint
 10
756.8186404632707
 20
405.5957346941788
 30
0.0
  0
ENDBLK
  5
69A
330
698
100
AcDbEntity
  8
0
100
AcDbBlockEnd
  0
BLOCK
  5
6A5
330
6A4
100
AcDbEntity
  8
0
100
AcDbBlockBegin
  2
*D13
 70
     1
 10
0.0
 20
0.0
 30
0.0
  3
*D13
  1

  0
LINE
  5
728
330
6A4
100
AcDbEntity
  8
dim
  6
ByBlock
 62
     1
370
    15
100
AcDbLine
 10
725.7054897890292
 20
405.5957346941788
 30
0.0
 11
735.4895618800683
 21
405.5957346941788
 31
0.0
  0
LINE
  5
729
330
6A4
100
AcDbEntity
  8
dim
  6
ByBlock
 62
     1
370
    15
100
AcDbLine
 10
729.6154897890255
 20
414.9907346941811
 30
0.0
 11
735.4895618800683
 21
414.9907346941811
 31
0.0
  0
LINE
  5
72A
330
6A4
100
AcDbEntity
  8
dim
  6
ByBlock
 62
     1
370
    15
100
AcDbLine
 10
734.9898118800685
 20
407.5957346941788
 30
0.0
 11
734.9898118800685
 21
412.9907346941811
 31
0.0
  0
SOLID
  5
72B
330
6A4
100
AcDbEntity
  8
dim
  6
ByBlock
 62
     1
100
AcDbTrace
 10
734.6564785467351
 20
407.5957346941788
 30
0.0
 11
735.3231452134017
 21
407.5957346941788
 31
0.0
 12
734.9898118800685
 22
405.5957346941788
 32
0.0
 13
734.9898118800685
 23
405.5957346941788
 33
0.0
  0
SOLID
  5
72C
330
6A4
100
AcDbEntity
  8
dim
  6
ByBlock
 62
     1
100
AcDbTrace
 10
734.6564785467351
 20
412.9907346941811
 30
0.0
 11
735.3231452134017
 21
412.9907346941811
 31
0.0
 12
734.9898118800685
 22
414.9907346941811
 32
0.0
 13
734.9898118800685
 23
414.9907346941811
 33
0.0
  0
MTEXT
  5
72D
330
6A4
100
AcDbEntity
  8
dim
  6
ByBlock
 62
     3
100
AcDbMText
 10
733.2136294107641
 20
410.2932346941813
 30
0.0
 40
2.5
 41
0.0
 71
     5
 72
     1
  1
9.4
 11
0.0000000000000001
 21
1.0
 31
0.0
 73
     1
 44
1.0
1001
ACAD
1000
MTEXTBEGIN
1070
    73
1070
     1
1070
    44
1040
1.0
1070
    74
1070
     0
1000
MTEXTEND
  0
POINT
  5
72E
330
6A4
100
AcDbEntity
  8
DEFPOINTS
  6
ByBlock
 62
     0
100
AcDbPoint
 10
725.2057397890292
 20
405.5957346941788
 30
0.0
  0
POINT
  5
72F
330
6A4
100
AcDbEntity
  8
DEFPOINTS
  6
ByBlock
 62
     0
100
AcDbPoint
 10
729.1157397890255
 20
414.9907346941811
 30
0.0
  0
POINT
  5
730
330
6A4
100
AcDbEntity
  8
DEFPOINTS
  6
ByBlock
 62
     0
100
AcDbPoint
 10
734.9898118800685
 20
414.9907346941811
 30
0.0
  0
ENDBLK
  5
6A6
330
6A4
100
AcDbEntity
  8
0
100
AcDbBlockEnd
  0
BLOCK
  5
6B1
330
6B0
100
AcDbEntity
  8
0
100
AcDbBlockBegin
  2
*D14
 70
     1
 10
0.0
 20
0.0
 30
0.0
  3
*D14
  1

  0
LINE
  5
731
330
6B0
100
AcDbEntity
  8
dim
  6
ByBlock
 62
     1
370
    15
100
AcDbLine
 10
725.7054897890292
 20
405.5957346941788
 30
0.0
 11
740.0365583270532
 21
405.5957346941788
 31
0.0
  0
LINE
  5
732
330
6B0
100
AcDbEntity
  8
dim
  6
ByBlock
 62
     1
370
    15
100
AcDbLine
 10
729.5154897890268
 20
459.5907346941815
 30
0.0
 11
740.0365583270532
 21
459.5907346941815
 31
0.0
  0
LINE
  5
733
330
6B0
100
AcDbEntity
  8
dim
  6
ByBlock
 62
     1
370
    15
100
AcDbLine
 10
739.5368083270532
 20
407.5957346941788
 30
0.0
 11
739.5368083270532
 21
457.5907346941813
 31
0.0
  0
SOLID
  5
734
330
6B0
100
AcDbEntity
  8
dim
  6
ByBlock
 62
     1
100
AcDbTrace
 10
739.20347499372
 20
407.5957346941788
 30
0.0
 11
739.8701416603866
 21
407.5957346941788
 31
0.0
 12
739.5368083270532
 22
405.5957346941788
 32
0.0
 13
739.5368083270532
 23
405.5957346941788
 33
0.0
  0
SOLID
  5
735
330
6B0
100
AcDbEntity
  8
dim
  6
ByBlock
 62
     1
100
AcDbTrace
 10
739.20347499372
 20
457.5907346941813
 30
0.0
 11
739.8701416603866
 21
457.5907346941813
 31
0.0
 12
739.5368083270532
 22
459.5907346941815
 32
0.0
 13
739.5368083270532
 23
459.5907346941815
 33
0.0
  0
MTEXT
  5
736
330
6B0
100
AcDbEntity
  8
dim
  6
ByBlock
 62
     3
100
AcDbMText
 10
737.7657418195497
 20
432.5932346941805
 30
0.0
 40
2.5
 41
0.0
 71
     5
 72
     1
  1
54
 11
0.0000000000000001
 21
1.0
 31
0.0
 73
     1
 44
1.0
1001
ACAD
1000
MTEXTBEGIN
1070
    73
1070
     1
1070
    44
1040
1.0
1070
    74
1070
     0
1000
MTEXTEND
  0
POINT
  5
737
330
6B0
100
AcDbEntity
  8
DEFPOINTS
  6
ByBlock
 62
     0
100
AcDbPoint
 10
725.2057397890292
 20
405.5957346941788
 30
0.0
  0
POINT
  5
738
330
6B0
100
AcDbEntity
  8
DEFPOINTS
  6
ByBlock
 62
     0
100
AcDbPoint
 10
729.0157397890269
 20
459.5907346941815
 30
0.0
  0
POINT
  5
739
330
6B0
100
AcDbEntity
  8
DEFPOINTS
  6
ByBlock
 62
     0
100
AcDbPoint
 10
739.5368083270532
 20
459.5907346941815
 30
0.0
  0
ENDBLK
  5
6B2
330
6B0
100
AcDbEntity
  8
0
100
AcDbBlockEnd
  0
BLOCK
  5
6BD
330
6BC
100
AcDbEntity
  8
0
100
AcDbBlockBegin
  2
*D15
 70
     1
 10
0.0
 20
0.0
 30
0.0
  3
*D15
  1

  0
LINE
  5
73A
330
6BC
100
AcDbEntity
  8
dim
  6
ByBlock
 62
     1
370
    15
100
AcDbLine
 10
724.5154897890269
 20
467.5907346941815
 30
0.0
 11
745.2052745026549
 21
467.5907346941815
 31
0.0
  0
LINE
  5
73B
330
6BC
100
AcDbEntity
  8
dim
  6
ByBlock
 62
     1
370
    15
100
AcDbLine
 10
725.7054897890292
 20
405.5957346941788
 30
0.0
 11
745.2052745026549
 21
405.5957346941788
 31
0.0
  0
LINE
  5
73C
330
6BC
100
AcDbEntity
  8
dim
  6
ByBlock
 62
     1
370
    15
100
AcDbLine
 10
744.705524502655
 20
465.5907346941813
 30
0.0
 11
744.705524502655
 21
407.5957346941788
 31
0.0
  0
SOLID
  5
73D
330
6BC
100
AcDbEntity
  8
dim
  6
ByBlock
 62
     1
100
AcDbTrace
 10
744.3721911693216
 20
465.5907346941813
 30
0.0
 11
745.0388578359883
 21
465.5907346941813
 31
0.0
 12
744.705524502655
 22
467.5907346941815
 32
0.0
 13
744.705524502655
 23
467.5907346941815
 33
0.0
  0
SOLID
  5
73E
330
6BC
100
AcDbEntity
  8
dim
  6
ByBlock
 62
     1
100
AcDbTrace
 10
744.3721911693216
 20
407.5957346941788
 30
0.0
 11
745.0388578359883
 21
407.5957346941788
 31
0.0
 12
744.705524502655
 22
405.5957346941788
 32
0.0
 13
744.705524502655
 23
405.5957346941788
 33
0.0
  0
MTEXT
  5
73F
330
6BC
100
AcDbEntity
  8
dim
  6
ByBlock
 62
     3
100
AcDbMText
 10
742.9293420333506
 20
436.5932346941805
 30
0.0
 40
2.5
 41
0.0
 71
     5
 72
     1
  1
62
 11
0.0000000000000001
 21
1.0
 31
0.0
 73
     1
 44
1.0
1001
ACAD
1000
MTEXTBEGIN
1070
    73
1070
     1
1070
    44
1040
1.0
1070
    74
1070
     0
1000
MTEXTEND
  0
POINT
  5
740
330
6BC
100
AcDbEntity
  8
DEFPOINTS
  6
ByBlock
 62
     0
100
AcDbPoint
 10
724.015739789027
 20
467.5907346941815
 30
0.0
  0
POINT
  5
741
330
6BC
100
AcDbEntity
  8
DEFPOINTS
  6
ByBlock
 62
     0
100
AcDbPoint
 10
725.2057397890292
 20
405.5957346941788
 30
0.0
  0
POINT
  5
742
330
6BC
100
AcDbEntity
  8
DEFPOINTS
  6
ByBlock
 62
     0
100
AcDbPoint
 10
744.705524502655
 20
405.5957346941788
 30
0.0
  0
ENDBLK
  5
6BE
330
6BC
100
AcDbEntity
  8
0
100
AcDbBlockEnd
  0
BLOCK
  5
6C9
330
6C8
100
AcDbEntity
  8
0
100
AcDbBlockBegin
  2
*D16
 70
     1
 10
0.0
 20
0.0
 30
0.0
  3
*D16
  1

  0
LINE
  5
743
330
6C8
100
AcDbEntity
  8
dim
  6
ByBlock
 62
     1
370
    15
100
AcDbLine
 10
720.7654897890269
 20
474.5957346941761
 30
0.0
 11
751.5120653034601
 21
474.5957346941761
 31
0.0
  0
LINE
  5
744
330
6C8
100
AcDbEntity
  8
dim
  6
ByBlock
 62
     1
370
    15
100
AcDbLine
 10
725.7054897890292
 20
405.5957346941788
 30
0.0
 11
751.5120653034601
 21
405.5957346941788
 31
0.0
  0
LINE
  5
745
330
6C8
100
AcDbEntity
  8
dim
  6
ByBlock
 62
     1
370
    15
100
AcDbLine
 10
751.0123153034602
 20
472.595734694176
 30
0.0
 11
751.0123153034602
 21
407.5957346941788
 31
0.0
  0
SOLID
  5
746
330
6C8
100
AcDbEntity
  8
dim
  6
ByBlock
 62
     1
100
AcDbTrace
 10
750.6789819701268
 20
472.595734694176
 30
0.0
 11
751.3456486367934
 21
472.595734694176
 31
0.0
 12
751.0123153034602
 22
474.5957346941761
 32
0.0
 13
751.0123153034602
 23
474.5957346941761
 33
0.0
  0
SOLID
  5
747
330
6C8
100
AcDbEntity
  8
dim
  6
ByBlock
 62
     1
100
AcDbTrace
 10
750.6789819701268
 20
407.5957346941788
 30
0.0
 11
751.3456486367934
 21
407.5957346941788
 31
0.0
 12
751.0123153034602
 22
405.5957346941788
 32
0.0
 13
751.0123153034602
 23
405.5957346941788
 33
0.0
  0
MTEXT
  5
748
330
6C8
100
AcDbEntity
  8
dim
  6
ByBlock
 62
     3
100
AcDbMText
 10
749.2361328341559
 20
440.0957346941778
 30
0.0
 40
2.5
 41
0.0
 71
     5
 72
     1
  1
69
 11
0.0000000000000001
 21
1.0
 31
0.0
 73
     1
 44
1.0
1001
ACAD
1000
MTEXTBEGIN
1070
    73
1070
     1
1070
    44
1040
1.0
1070
    74
1070
     0
1000
MTEXTEND
  0
POINT
  5
749
330
6C8
100
AcDbEntity
  8
DEFPOINTS
  6
ByBlock
 62
     0
100
AcDbPoint
 10
720.2657397890269
 20
474.5957346941761
 30
0.0
  0
POINT
  5
74A
330
6C8
100
AcDbEntity
  8
DEFPOINTS
  6
ByBlock
 62
     0
100
AcDbPoint
 10
725.2057397890292
 20
405.5957346941788
 30
0.0
  0
POINT
  5
74B
330
6C8
100
AcDbEntity
  8
DEFPOINTS
  6
ByBlock
 62
     0
100
AcDbPoint
 10
751.0123153034602
 20
405.5957346941788
 30
0.0
  0
ENDBLK
  5
6CA
330
6C8
100
AcDbEntity
  8
0
100
AcDbBlockEnd
  0
BLOCK
  5
6D5
330
6D4
100
AcDbEntity
  8
0
100
AcDbBlockBegin
  2
*D17
 70
     1
 10
0.0
 20
0.0
 30
0.0
  3
*D17
  1

  0
LINE
  5
74C
330
6D4
100
AcDbEntity
  8
dim
  6
ByBlock
 62
     1
370
    15
100
AcDbLine
 10
700.9157397890269
 20
406.4459846941803
 30
0.0
 11
700.9157397890269
 21
396.3991162327524
 31
0.0
  0
LINE
  5
74D
330
6D4
100
AcDbEntity
  8
dim
  6
ByBlock
 62
     1
370
    15
100
AcDbLine
 10
729.1157397890242
 20
406.4459846941794
 30
0.0
 11
729.1157397890242
 21
396.3991162327524
 31
0.0
  0
LINE
  5
74E
330
6D4
100
AcDbEntity
  8
dim
  6
ByBlock
 62
     1
370
    15
100
AcDbLine
 10
702.9157397890269
 20
396.8988662327524
 30
0.0
 11
727.1157397890242
 21
396.8988662327524
 31
0.0
  0
SOLID
  5
74F
330
6D4
100
AcDbEntity
  8
dim
  6
ByBlock
 62
     1
100
AcDbTrace
 10
702.9157397890269
 20
397.2321995660857
 30
0.0
 11
702.9157397890269
 21
396.565532899419
 31
0.0
 12
700.9157397890269
 22
396.8988662327524
 32
0.0
 13
700.9157397890269
 23
396.8988662327524
 33
0.0
  0
SOLID
  5
750
330
6D4
100
AcDbEntity
  8
dim
  6
ByBlock
 62
     1
100
AcDbTrace
 10
727.1157397890242
 20
397.2321995660857
 30
0.0
 11
727.1157397890242
 21
396.565532899419
 31
0.0
 12
729.1157397890242
 22
396.8988662327524
 32
0.0
 13
729.1157397890242
 23
396.8988662327524
 33
0.0
  0
MTEXT
  5
751
330
6D4
100
AcDbEntity
  8
dim
  6
ByBlock
 62
     3
100
AcDbMText
 10
715.0157397890255
 20
399.4986048639484
 30
0.0
 40
2.5
 41
0.0
 71
     5
 72
     1
  1
{\fISOCPEUR|b0|i0|c0|p34;%%C}28.2{\H0.7x;\S 0^ -0.1;}
 73
     1
 44
1.0
1001
ACAD
1000
MTEXTBEGIN
1070
    73
1070
     1
1070
    44
1040
1.0
1070
    74
1070
     0
1000
MTEXTEND
  0
POINT
  5
752
330
6D4
100
AcDbEntity
  8
DEFPOINTS
  6
ByBlock
 62
     0
100
AcDbPoint
 10
700.9157397890269
 20
406.9457346941803
 30
0.0
  0
POINT
  5
753
330
6D4
100
AcDbEntity
  8
DEFPOINTS
  6
ByBlock
 62
     0
100
AcDbPoint
 10
729.1157397890242
 20
406.9457346941794
 30
0.0
  0
POINT
  5
754
330
6D4
100
AcDbEntity
  8
DEFPOINTS
  6
ByBlock
 62
     0
100
AcDbPoint
 10
729.1157397890242
 20
396.8988662327524
 30
0.0
  0
ENDBLK
  5
6D6
330
6D4
100
AcDbEntity
  8
0
100
AcDbBlockEnd
  0
BLOCK
  5
6E1
330
6E0
100
AcDbEntity
  8
0
100
AcDbBlockBegin
  2
*D18
 70
     1
 10
0.0
 20
0.0
 30
0.0
  3
*D18
  1

  0
LINE
  5
755
330
6E0
100
AcDbEntity
  8
dim
  6
ByBlock
 62
     1
370
    15
100
AcDbLine
 10
721.741244933607
 20
358.5447810481239
 30
0.0
 11
749.6243084203044
 21
358.5447810481239
 31
0.0
  0
LINE
  5
756
330
6E0
100
AcDbEntity
  8
dim
  6
ByBlock
 62
     1
370
    15
100
AcDbLine
 10
721.741244933607
 20
334.5447810481248
 30
0.0
 11
749.6243084203044
 21
334.5447810481248
 31
0.0
  0
LINE
  5
757
330
6E0
100
AcDbEntity
  8
dim
  6
ByBlock
 62
     1
370
    15
100
AcDbLine
 10
749.1245584203044
 20
356.5447810481239
 30
0.0
 11
749.1245584203044
 21
336.5447810481248
 31
0.0
  0
SOLID
  5
758
330
6E0
100
AcDbEntity
  8
dim
  6
ByBlock
 62
     1
100
AcDbTrace
 10
748.7912250869709
 20
356.5447810481239
 30
0.0
 11
749.4578917536377
 21
356.5447810481239
 31
0.0
 12
749.1245584203044
 22
358.5447810481239
 32
0.0
 13
749.1245584203044
 23
358.5447810481239
 33
0.0
  0
SOLID
  5
759
330
6E0
100
AcDbEntity
  8
dim
  6
ByBlock
 62
     1
100
AcDbTrace
 10
748.7912250869709
 20
336.5447810481248
 30
0.0
 11
749.4578917536377
 21
336.5447810481248
 31
0.0
 12
749.1245584203044
 22
334.5447810481248
 32
0.0
 13
749.1245584203044
 23
334.5447810481248
 33
0.0
  0
MTEXT
  5
75A
330
6E0
100
AcDbEntity
  8
dim
  6
ByBlock
 62
     3
100
AcDbMText
 10
747.0559134680533
 20
346.5447810481248
 30
0.0
 40
2.5
 41
0.0
 71
     5
 72
     1
  1
{\H1.25x;24}
 11
0.0000000000000001
 21
1.0
 31
0.0
 73
     1
 44
1.0
1001
ACAD
1000
MTEXTBEGIN
1070
    73
1070
     1
1070
    44
1040
1.0
1070
    74
1070
     0
1000
MTEXTEND
  0
POINT
  5
75B
330
6E0
100
AcDbEntity
  8
DEFPOINTS
  6
ByBlock
 62
     0
100
AcDbPoint
 10
721.241494933607
 20
358.5447810481239
 30
0.0
  0
POINT
  5
75C
330
6E0
100
AcDbEntity
  8
DEFPOINTS
  6
ByBlock
 62
     0
100
AcDbPoint
 10
721.241494933607
 20
334.5447810481248
 30
0.0
  0
POINT
  5
75D
330
6E0
100
AcDbEntity
  8
DEFPOINTS
  6
ByBlock
 62
     0
100
AcDbPoint
 10
749.1245584203044
 20
334.5447810481248
 30
0.0
  0
ENDBLK
  5
6E2
330
6E0
100
AcDbEntity
  8
0
100
AcDbBlockEnd
  0
BLOCK
  5
6ED
330
6EC
100
AcDbEntity
  8
0
100
AcDbBlockBegin
  2
*D19
 70
     1
 10
0.0
 20
0.0
 30
0.0
  3
*D19
  1

  0
LINE
  5
770
330
6EC
100
AcDbEntity
  8
dim
  6
ByBlock
 62
     1
370
    15
100
AcDbLine
 10
718.3960406680743
 20
351.5447810481258
 30
0.0
 11
742.3419836061766
 21
351.5447810481258
 31
0.0
  0
LINE
  5
771
330
6EC
100
AcDbEntity
  8
dim
  6
ByBlock
 62
     1
370
    15
100
AcDbLine
 10
718.3960406680816
 20
341.5447810481236
 30
0.0
 11
742.3419836061766
 21
341.5447810481236
 31
0.0
  0
LINE
  5
772
330
6EC
100
AcDbEntity
  8
dim
  6
ByBlock
 62
     1
370
    15
100
AcDbLine
 10
741.8422336061767
 20
349.5447810481258
 30
0.0
 11
741.8422336061767
 21
343.5447810481236
 31
0.0
  0
SOLID
  5
773
330
6EC
100
AcDbEntity
  8
dim
  6
ByBlock
 62
     1
100
AcDbTrace
 10
741.5089002728433
 20
349.5447810481258
 30
0.0
 11
742.1755669395102
 21
349.5447810481258
 31
0.0
 12
741.8422336061767
 22
351.5447810481258
 32
0.0
 13
741.8422336061767
 23
351.5447810481258
 33
0.0
  0
SOLID
  5
774
330
6EC
100
AcDbEntity
  8
dim
  6
ByBlock
 62
     1
100
AcDbTrace
 10
741.5089002728433
 20
343.5447810481236
 30
0.0
 11
742.1755669395102
 21
343.5447810481236
 31
0.0
 12
741.8422336061767
 22
341.5447810481236
 32
0.0
 13
741.8422336061767
 23
341.5447810481236
 33
0.0
  0
MTEXT
  5
775
330
6EC
100
AcDbEntity
  8
dim
  6
ByBlock
 62
     3
100
AcDbMText
 10
739.7469430195461
 20
346.5447810481248
 30
0.0
 40
2.5
 41
0.0
 71
     5
 72
     1
  1
{\H1.25x;10}
 11
0.0000000000000001
 21
1.0
 31
0.0
 73
     1
 44
1.0
1001
ACAD
1000
MTEXTBEGIN
1070
    73
1070
     1
1070
    44
1040
1.0
1070
    74
1070
     0
1000
MTEXTEND
  0
POINT
  5
776
330
6EC
100
AcDbEntity
  8
DEFPOINTS
  6
ByBlock
 62
     0
100
AcDbPoint
 10
717.8962906680744
 20
351.5447810481258
 30
0.0
  0
POINT
  5
777
330
6EC
100
AcDbEntity
  8
DEFPOINTS
  6
ByBlock
 62
     0
100
AcDbPoint
 10
717.8962906680818
 20
341.5447810481236
 30
0.0
  0
POINT
  5
778
330
6EC
100
AcDbEntity
  8
DEFPOINTS
  6
ByBlock
 62
     0
100
AcDbPoint
 10
741.8422336061767
 20
341.5447810481236
 30
0.0
  0
ENDBLK
  5
6EE
330
6EC
100
AcDbEntity
  8
0
100
AcDbBlockEnd
  0
BLOCK
  5
6F9
330
6F8
100
AcDbEntity
  8
0
100
AcDbBlockBegin
  2
*D20
 70
     1
 10
0.0
 20
0.0
 30
0.0
  3
*D20
  1

  0
LINE
  5
767
330
6F8
100
AcDbEntity
  8
dim
  6
ByBlock
 62
     1
370
    15
100
AcDbLine
 10
700.0157397890489
 20
415.3909846941624
 30
0.0
 11
700.0157397890489
 21
390.6342052368465
 31
0.0
  0
LINE
  5
768
330
6F8
100
AcDbEntity
  8
dim
  6
ByBlock
 62
     1
370
    15
100
AcDbLine
 10
730.0157397890342
 20
415.3909846941815
 30
0.0
 11
730.0157397890342
 21
390.6342052368465
 31
0.0
  0
LINE
  5
769
330
6F8
100
AcDbEntity
  8
dim
  6
ByBlock
 62
     1
370
    15
100
AcDbLine
 10
702.0157397890487
 20
391.1339552368465
 30
0.0
 11
728.0157397890341
 21
391.1339552368465
 31
0.0
  0
SOLID
  5
76A
330
6F8
100
AcDbEntity
  8
dim
  6
ByBlock
 62
     1
100
AcDbTrace
 10
702.0157397890487
 20
391.4672885701799
 30
0.0
 11
702.0157397890487
 21
390.8006219035132
 31
0.0
 12
700.0157397890489
 22
391.1339552368465
 32
0.0
 13
700.0157397890489
 23
391.1339552368465
 33
0.0
  0
SOLID
  5
76B
330
6F8
100
AcDbEntity
  8
dim
  6
ByBlock
 62
     1
100
AcDbTrace
 10
728.0157397890341
 20
391.4672885701799
 30
0.0
 11
728.0157397890341
 21
390.8006219035132
 31
0.0
 12
730.0157397890342
 22
391.1339552368465
 32
0.0
 13
730.0157397890342
 23
391.1339552368465
 33
0.0
  0
MTEXT
  5
76C
330
6F8
100
AcDbEntity
  8
dim
  6
ByBlock
 62
     3
100
AcDbMText
 10
715.0157397890416
 20
392.9109903664509
 30
0.0
 40
2.5
 41
0.0
 71
     5
 72
     1
  1
M30*1.5
 73
     1
 44
1.0
1001
ACAD
1000
MTEXTBEGIN
1070
    73
1070
     1
1070
    44
1040
1.0
1070
    74
1070
     0
1000
MTEXTEND
  0
POINT
  5
76D
330
6F8
100
AcDbEntity
  8
DEFPOINTS
  6
ByBlock
 62
     0
100
AcDbPoint
 10
700.0157397890489
 20
415.8907346941624
 30
0.0
  0
POINT
  5
76E
330
6F8
100
AcDbEntity
  8
DEFPOINTS
  6
ByBlock
 62
     0
100
AcDbPoint
 10
730.0157397890342
 20
415.8907346941815
 30
0.0
  0
POINT
  5
76F
330
6F8
100
AcDbEntity
  8
DEFPOINTS
  6
ByBlock
 62
     0
100
AcDbPoint
 10
730.0157397890342
 20
391.1339552368465
 30
0.0
  0
ENDBLK
  5
6FA
330
6F8
100
AcDbEntity
  8
0
100
AcDbBlockEnd
  0
BLOCK
  5
819
330
818
100
AcDbEntity
  8
0
100
AcDbBlockBegin
  2
*D21
 70
     1
 10
0.0
 20
0.0
 30
0.0
  3
*D21
  1

  0
LINE
  5
824
330
818
100
AcDbEntity
  8
dim
  6
ByBlock
 62
     1
370
    15
100
AcDbLine
 10
700.9157397890269
 20
406.4459846941803
 30
0.0
 11
700.9157397890269
 21
396.3991162327524
 31
0.0
  0
LINE
  5
825
330
818
100
AcDbEntity
  8
dim
  6
ByBlock
 62
     1
370
    15
100
AcDbLine
 10
729.1157397890242
 20
406.4459846941794
 30
0.0
 11
729.1157397890242
 21
396.3991162327524
 31
0.0
  0
LINE
  5
826
330
818
100
AcDbEntity
  8
dim
  6
ByBlock
 62
     1
370
    15
100
AcDbLine
 10
702.9157397890269
 20
396.8988662327524
 30
0.0
 11
727.1157397890242
 21
396.8988662327524
 31
0.0
  0
SOLID
  5
827
330
818
100
AcDbEntity
  8
dim
  6
ByBlock
 62
     1
100
AcDbTrace
 10
702.9157397890269
 20
397.2321995660857
 30
0.0
 11
702.9157397890269
 21
396.565532899419
 31
0.0
 12
700.9157397890269
 22
396.8988662327524
 32
0.0
 13
700.9157397890269
 23
396.8988662327524
 33
0.0
  0
SOLID
  5
828
330
818
100
AcDbEntity
  8
dim
  6
ByBlock
 62
     1
100
AcDbTrace
 10
727.1157397890242
 20
397.2321995660857
 30
0.0
 11
727.1157397890242
 21
396.565532899419
 31
0.0
 12
729.1157397890242
 22
396.8988662327524
 32
0.0
 13
729.1157397890242
 23
396.8988662327524
 33
0.0
  0
MTEXT
  5
829
330
818
100
AcDbEntity
  8
dim
  6
ByBlock
 62
     3
100
AcDbMText
 10
715.0157397890255
 20
398.6750487020566
 30
0.0
 40
2.5
 41
0.0
 71
     5
 72
     1
  1
{\fISOCPEUR|b0|i0|c0|p34;%%C}28.2
 73
     1
 44
1.0
1001
ACAD
1000
MTEXTBEGIN
1070
    73
1070
     1
1070
    44
1040
1.0
1070
    74
1070
     0
1000
MTEXTEND
  0
POINT
  5
82A
330
818
100
AcDbEntity
  8
DEFPOINTS
  6
ByBlock
 62
     0
100
AcDbPoint
 10
700.9157397890269
 20
406.9457346941803
 30
0.0
  0
POINT
  5
82B
330
818
100
AcDbEntity
  8
DEFPOINTS
  6
ByBlock
 62
     0
100
AcDbPoint
 10
729.1157397890242
 20
406.9457346941794
 30
0.0
  0
POINT
  5
82C
330
818
100
AcDbEntity
  8
DEFPOINTS
  6
ByBlock
 62
     0
100
AcDbPoint
 10
729.1157397890242
 20
396.8988662327524
 30
0.0
  0
ENDBLK
  5
81A
330
818
100
AcDbEntity
  8
0
100
AcDbBlockEnd
  0
ENDSEC
  0
SECTION
  2
ENTITIES
  0
MTEXT
  5
47D
330
1F
100
AcDbEntity
  8
1L
 62
     3
100
AcDbMText
 10
-12631.78777640077
 20
-3217.337459103129
 30
0.0
 40
2.5
 41
1.699059745345948
 71
     1
 72
     1
  1

 73
     1
 44
1.0
1001
ACAD
1000
MTEXTBEGIN
1070
    73
1070
     1
1070
    44
1040
1.0
1070
    74
1070
     0
1000
MTEXTEND
  0
REGION
  5
47E
330
1F
100
AcDbEntity
  8
1L
  6
ByBlock
100
AcDbModelerGeometry
 70
     1
  1
koo o o o           
  1
ni ^ *+0;:,4 ^ *+0\^ [ nf ^ LR mnfqoqoqjioo QK o  
  1
mjqlffffffffffffff fqfffffffffffffffj:rooh n:rono 
1001
ACAD_OBJECT_CHANGE_GUID
1070
     1
1071
1335804548
1070
 -3949
1070
 19218
1070
   140
1070
   104
1070
   141
1070
    35
1070
    23
1070
   108
1070
    78
1070
    17
  0
MTEXT
  5
47F
102
{ACAD_XDICTIONARY
360
480
102
}
330
1F
100
AcDbEntity
  8
dim @ 1
  6
ByBlock
 62
     3
100
AcDbMText
 10
-11358.23164245218
 20
-2714.678059705014
 30
0.0
 40
2.5
 41
2.916429696650084
 71
     1
 72
     1
  1
 
 73
     1
 44
1.0
1001
AcadAnnotative
1000
AnnotativeData
1002
{
1070
     1
1070
     0
1002
}
1001
ACAD
1000
MTEXTBEGIN
1070
    73
1070
     1
1070
    44
1040
1.0
1070
    74
1070
     0
1000
MTEXTEND
  0
MTEXT
  5
484
102
{ACAD_XDICTIONARY
360
485
102
}
330
1F
100
AcDbEntity
  8
dim @ 1
  6
ByBlock
 62
     3
100
AcDbMText
 10
-11414.24018610291
 20
-2649.20201181228
 30
0.0
 40
2.5
 41
2.916429696650084
 71
     1
 72
     1
  1

 73
     1
 44
1.0
1001
AcadAnnotative
1000
AnnotativeData
1002
{
1070
     1
1070
     0
1002
}
1001
ACAD
1000
MTEXTBEGIN
1070
    73
1070
     1
1070
    44
1040
1.0
1070
    74
1070
     0
1000
MTEXTEND
  0
MTEXT
  5
489
102
{ACAD_XDICTIONARY
360
48A
102
}
330
1F
100
AcDbEntity
  8
dim @ 1
  6
ByBlock
 62
     3
100
AcDbMText
 10
-11605.3154248431
 20
-2786.938829404889
 30
0.0
 40
2.5
 41
2.916429696650084
 71
     1
 72
     1
  1

 73
     1
 44
1.0
1001
AcadAnnotative
1000
AnnotativeData
1002
{
1070
     1
1070
     0
1002
}
1001
ACAD
1000
MTEXTBEGIN
1070
    73
1070
     1
1070
    44
1040
1.0
1070
    74
1070
     0
1000
MTEXTEND
  0
MTEXT
  5
48E
102
{ACAD_XDICTIONARY
360
48F
102
}
330
1F
100
AcDbEntity
  8
dim @ 1
  6
ByBlock
 62
     3
100
AcDbMText
 10
-11598.05819199536
 20
-2797.424821252387
 30
0.0
 40
2.5
 41
2.916429696650084
 71
     1
 72
     1
  1

 73
     1
 44
1.0
1001
AcadAnnotative
1000
AnnotativeData
1002
{
1070
     1
1070
     0
1002
}
1001
ACAD
1000
MTEXTBEGIN
1070
    73
1070
     1
1070
    44
1040
1.0
1070
    74
1070
     0
1000
MTEXTEND
  0
MTEXT
  5
493
102
{ACAD_XDICTIONARY
360
494
102
}
330
1F
100
AcDbEntity
  8
dim @ 1
  6
ByBlock
 62
     3
100
AcDbMText
 10
-11597.78610556281
 20
-2804.360684362449
 30
0.0
 40
2.5
 41
2.916429696650084
 71
     1
 72
     1
  1

 73
     1
 44
1.0
1001
AcadAnnotative
1000
AnnotativeData
1002
{
1070
     1
1070
     0
1002
}
1001
ACAD
1000
MTEXTBEGIN
1070
    73
1070
     1
1070
    44
1040
1.0
1070
    74
1070
     0
1000
MTEXTEND
  0
MTEXT
  5
498
102
{ACAD_XDICTIONARY
360
499
102
}
330
1F
100
AcDbEntity
  8
dim @ 1
  6
ByBlock
 62
     3
100
AcDbMText
 10
-11966.34148639843
 20
-2841.632489366725
 30
0.0
 40
2.5
 41
2.916429696650084
 71
     9
 72
     1
  1

 73
     1
 44
1.0
1001
AcadAnnotative
1000
AnnotativeData
1002
{
1070
     1
1070
     0
1002
}
1001
ACAD
1000
MTEXTBEGIN
1070
    73
1070
     1
1070
    44
1040
1.0
1070
    74
1070
     0
1000
MTEXTEND
  0
MTEXT
  5
49D
102
{ACAD_XDICTIONARY
360
49E
102
}
330
1F
100
AcDbEntity
  8
dim @ 1
  6
ByBlock
 62
     3
100
AcDbMText
 10
-11972.98577728258
 20
-2831.025528080883
 30
0.0
 40
2.5
 41
2.916429696650084
 71
     9
 72
     1
  1

 73
     1
 44
1.0
1001
AcadAnnotative
1000
AnnotativeData
1002
{
1070
     1
1070
     0
1002
}
1001
ACAD
1000
MTEXTBEGIN
1070
    73
1070
     1
1070
    44
1040
1.0
1070
    74
1070
     0
1000
MTEXTEND
  0
MTEXT
  5
4A2
102
{ACAD_XDICTIONARY
360
4A3
102
}
330
1F
100
AcDbEntity
  8
dim @ 1
  6
ByBlock
 62
     3
100
AcDbMText
 10
-11930.4413699936
 20
-2837.086558892728
 30
0.0
 40
2.5
 41
2.916429696650084
 71
     1
 72
     1
  1

 73
     1
 44
1.0
1001
AcadAnnotative
1000
AnnotativeData
1002
{
1070
     1
1070
     0
1002
}
1001
ACAD
1000
MTEXTBEGIN
1070
    73
1070
     1
1070
    44
1040
1.0
1070
    74
1070
     0
1000
MTEXTEND
  0
MTEXT
  5
4A7
102
{ACAD_XDICTIONARY
360
4A8
102
}
330
1F
100
AcDbEntity
  8
dim @ 1
  6
ByBlock
 62
     3
100
AcDbMText
 10
-11926.7529543538
 20
-2805.752819833205
 30
0.0
 40
2.5
 41
2.916429696650084
 71
     1
 72
     1
  1

 73
     1
 44
1.0
1001
AcadAnnotative
1000
AnnotativeData
1002
{
1070
     1
1070
     0
1002
}
1001
ACAD
1000
MTEXTBEGIN
1070
    73
1070
     1
1070
    44
1040
1.0
1070
    74
1070
     0
1000
MTEXTEND
  0
MTEXT
  5
4AC
102
{ACAD_XDICTIONARY
360
4AD
102
}
330
1F
100
AcDbEntity
  8
dim @ 1
  6
ByBlock
 62
     3
100
AcDbMText
 10
-11926.76850214996
 20
-2789.738891228806
 30
0.0
 40
2.5
 41
2.916429696650084
 71
     1
 72
     1
  1

 73
     1
 44
1.0
1001
AcadAnnotative
1000
AnnotativeData
1002
{
1070
     1
1070
     0
1002
}
1001
ACAD
1000
MTEXTBEGIN
1070
    73
1070
     1
1070
    44
1040
1.0
1070
    74
1070
     0
1000
MTEXTEND
  0
MTEXT
  5
4B1
102
{ACAD_XDICTIONARY
360
4B2
102
}
330
1F
100
AcDbEntity
  8
dim @ 1
  6
ByBlock
 62
     3
100
AcDbMText
 10
-11946.26150767466
 20
-2804.589053138542
 30
0.0
 40
2.5
 41
2.916429696650084
 71
     9
 72
     1
  1

 73
     1
 44
1.0
1001
AcadAnnotative
1000
AnnotativeData
1002
{
1070
     1
1070
     0
1002
}
1001
ACAD
1000
MTEXTBEGIN
1070
    73
1070
     1
1070
    44
1040
1.0
1070
    74
1070
     0
1000
MTEXTEND
  0
MTEXT
  5
4B6
102
{ACAD_XDICTIONARY
360
4B7
102
}
330
1F
100
AcDbEntity
  8
dim @ 1
  6
ByBlock
 62
     3
100
AcDbMText
 10
-12028.75247699941
 20
-2828.234242696786
 30
0.0
 40
2.5
 41
2.916429696650084
 71
     1
 72
     1
  1

 73
     1
 44
1.0
1001
AcadAnnotative
1000
AnnotativeData
1002
{
1070
     1
1070
     0
1002
}
1001
ACAD
1000
MTEXTBEGIN
1070
    73
1070
     1
1070
    44
1040
1.0
1070
    74
1070
     0
1000
MTEXTEND
  0
MTEXT
  5
4BB
102
{ACAD_XDICTIONARY
360
4BC
102
}
330
1F
100
AcDbEntity
  8
dim @ 1
  6
ByBlock
 62
     3
100
AcDbMText
 10
-12000.93567571602
 20
-2772.460282132908
 30
0.0
 40
2.5
 41
2.916429696650084
 71
     1
 72
     1
  1

 73
     1
 44
1.0
1001
AcadAnnotative
1000
AnnotativeData
1002
{
1070
     1
1070
     0
1002
}
1001
ACAD
1000
MTEXTBEGIN
1070
    73
1070
     1
1070
    44
1040
1.0
1070
    74
1070
     0
1000
MTEXTEND
  0
MTEXT
  5
4C0
102
{ACAD_XDICTIONARY
360
4C1
102
}
330
1F
100
AcDbEntity
  8
dim @ 1
  6
ByBlock
 62
     3
100
AcDbMText
 10
-12342.30513699651
 20
-2701.698201301427
 30
0.0
 40
2.5
 41
2.916429696650084
 71
     9
 72
     1
  1

 73
     1
 44
1.0
1001
AcadAnnotative
1000
AnnotativeData
1002
{
1070
     1
1070
     0
1002
}
1001
ACAD
1000
MTEXTBEGIN
1070
    73
1070
     1
1070
    44
1040
1.0
1070
    74
1070
     0
1000
MTEXTEND
  0
MTEXT
  5
4C5
102
{ACAD_XDICTIONARY
360
4C6
102
}
330
1F
100
AcDbEntity
  8
dim @ 1
  6
ByBlock
 62
     3
100
AcDbMText
 10
-12231.61713116406
 20
-2821.57894972919
 30
0.0
 40
2.5
 41
2.916429696650084
 71
     1
 72
     1
  1

 73
     1
 44
1.0
1001
AcadAnnotative
1000
AnnotativeData
1002
{
1070
     1
1070
     0
1002
}
1001
ACAD
1000
MTEXTBEGIN
1070
    73
1070
     1
1070
    44
1040
1.0
1070
    74
1070
     0
1000
MTEXTEND
  0
MTEXT
  5
4CA
102
{ACAD_XDICTIONARY
360
4CB
102
}
330
1F
100
AcDbEntity
  8
dim @ 1
  6
ByBlock
 62
     3
100
AcDbMText
 10
-12225.8435168641
 20
-2833.74413273094
 30
0.0
 40
2.5
 41
2.916429696650084
 71
     1
 72
     1
  1

 73
     1
 44
1.0
1001
AcadAnnotative
1000
AnnotativeData
1002
{
1070
     1
1070
     0
1002
}
1001
ACAD
1000
MTEXTBEGIN
1070
    73
1070
     1
1070
    44
1040
1.0
1070
    74
1070
     0
1000
MTEXTEND
  0
MTEXT
  5
4CF
102
{ACAD_XDICTIONARY
360
4D0
102
}
330
1F
100
AcDbEntity
  8
dim @ 1
  6
ByBlock
 62
     3
100
AcDbMText
 10
-12217.95121634308
 20
-2842.646806638751
 30
0.0
 40
2.5
 41
2.916429696650084
 71
     1
 72
     1
  1

 73
     1
 44
1.0
1001
AcadAnnotative
1000
AnnotativeData
1002
{
1070
     1
1070
     0
1002
}
1001
ACAD
1000
MTEXTBEGIN
1070
    73
1070
     1
1070
    44
1040
1.0
1070
    74
1070
     0
1000
MTEXTEND
  0
MTEXT
  5
4D4
102
{ACAD_XDICTIONARY
360
4D5
102
}
330
1F
100
AcDbEntity
  8
dim @ 1
  6
ByBlock
 62
     3
100
AcDbMText
 10
-12853.87342052603
 20
-2752.538110136816
 30
0.0
 40
2.5
 41
2.916429696650084
 71
     1
 72
     1
  1

 73
     1
 44
1.0
1001
AcadAnnotative
1000
AnnotativeData
1002
{
1070
     1
1070
     0
1002
}
1001
ACAD
1000
MTEXTBEGIN
1070
    73
1070
     1
1070
    44
1040
1.0
1070
    74
1070
     0
1000
MTEXTEND
  0
MTEXT
  5
4D9
102
{ACAD_XDICTIONARY
360
4DA
102
}
330
1F
100
AcDbEntity
  8
dim @ 1
  6
ByBlock
 62
     3
100
AcDbMText
 10
-13744.96665306505
 20
-2824.518873654282
 30
0.0
 40
2.5
 41
2.916429696650084
 71
     1
 72
     1
  1

 73
     1
 44
1.0
1001
AcadAnnotative
1000
AnnotativeData
1002
{
1070
     1
1070
     0
1002
}
1001
ACAD
1000
MTEXTBEGIN
1070
    73
1070
     1
1070
    44
1040
1.0
1070
    74
1070
     0
1000
MTEXTEND
  0
MTEXT
  5
4DE
102
{ACAD_XDICTIONARY
360
4DF
102
}
330
1F
100
AcDbEntity
  8
dim @ 1
  6
ByBlock
 62
     3
100
AcDbMText
 10
-13785.63874690265
 20
-2839.011484869907
 30
0.0
 40
2.5
 41
2.916429696650084
 71
     9
 72
     1
  1

 73
     1
 44
1.0
1001
AcadAnnotative
1000
AnnotativeData
1002
{
1070
     1
1070
     0
1002
}
1001
ACAD
1000
MTEXTBEGIN
1070
    73
1070
     1
1070
    44
1040
1.0
1070
    74
1070
     0
1000
MTEXTEND
  0
MTEXT
  5
4E3
102
{ACAD_XDICTIONARY
360
4E4
102
}
330
1F
100
AcDbEntity
  8
dim @ 1
  6
ByBlock
 62
     3
100
AcDbMText
 10
-13795.29034035695
 20
-2824.762187372636
 30
0.0
 40
2.5
 41
2.916429696650084
 71
     9
 72
     1
  1

 73
     1
 44
1.0
1001
AcadAnnotative
1000
AnnotativeData
1002
{
1070
     1
1070
     0
1002
}
1001
ACAD
1000
MTEXTBEGIN
1070
    73
1070
     1
1070
    44
1040
1.0
1070
    74
1070
     0
1000
MTEXTEND
  0
MTEXT
  5
4E8
102
{ACAD_XDICTIONARY
360
4E9
102
}
330
1F
100
AcDbEntity
  8
dim @ 1
  6
ByBlock
 62
     3
100
AcDbMText
 10
-13793.11125692767
 20
-2818.012995050847
 30
0.0
 40
2.5
 41
2.916429696650084
 71
     9
 72
     1
  1
 
 73
     1
 44
1.0
1001
AcadAnnotative
1000
AnnotativeData
1002
{
1070
     1
1070
     0
1002
}
1001
ACAD
1000
MTEXTBEGIN
1070
    73
1070
     1
1070
    44
1040
1.0
1070
    74
1070
     0
1000
MTEXTEND
  0
MTEXT
  5
4ED
102
{ACAD_XDICTIONARY
360
4EE
102
}
330
1F
100
AcDbEntity
  8
dim @ 1
  6
ByBlock
 62
     3
100
AcDbMText
 10
-14523.51024238982
 20
-2677.637690198817
 30
0.0
 40
2.5
 41
2.916429696650084
 71
     9
 72
     1
  1

 73
     1
 44
1.0
1001
AcadAnnotative
1000
AnnotativeData
1002
{
1070
     1
1070
     0
1002
}
1001
ACAD
1000
MTEXTBEGIN
1070
    73
1070
     1
1070
    44
1040
1.0
1070
    74
1070
     0
1000
MTEXTEND
  0
MTEXT
  5
4F2
102
{ACAD_XDICTIONARY
360
4F3
102
}
330
1F
100
AcDbEntity
  8
dim @ 1
  6
ByBlock
 62
     3
100
AcDbMText
 10
-14489.15234776446
 20
-2696.275908946413
 30
0.0
 40
2.5
 41
2.916429696650084
 71
     1
 72
     1
  1

 73
     1
 44
1.0
1001
AcadAnnotative
1000
AnnotativeData
1002
{
1070
     1
1070
     0
1002
}
1001
ACAD
1000
MTEXTBEGIN
1070
    73
1070
     1
1070
    44
1040
1.0
1070
    74
1070
     0
1000
MTEXTEND
  0
MTEXT
  5
4F7
102
{ACAD_XDICTIONARY
360
4F8
102
}
330
1F
100
AcDbEntity
  8
dim @ 1
  6
ByBlock
 62
     3
100
AcDbMText
 10
-14777.14921483323
 20
-2645.10170495304
 30
0.0
 40
2.5
 41
2.916429696650084
 71
     9
 72
     1
  1

 73
     1
 44
1.0
1001
AcadAnnotative
1000
AnnotativeData
1002
{
1070
     1
1070
     0
1002
}
1001
ACAD
1000
MTEXTBEGIN
1070
    73
1070
     1
1070
    44
1040
1.0
1070
    74
1070
     0
1000
MTEXTEND
  0
MTEXT
  5
4FC
102
{ACAD_XDICTIONARY
360
4FD
102
}
330
1F
100
AcDbEntity
  8
dim @ 1
  6
ByBlock
 62
     3
100
AcDbMText
 10
-15139.68853944268
 20
-2614.718073373142
 30
0.0
 40
2.5
 41
2.916429696650084
 71
     9
 72
     1
  1

 73
     1
 44
1.0
1001
AcadAnnotative
1000
AnnotativeData
1002
{
1070
     1
1070
     0
1002
}
1001
ACAD
1000
MTEXTBEGIN
1070
    73
1070
     1
1070
    44
1040
1.0
1070
    74
1070
     0
1000
MTEXTEND
  0
MTEXT
  5
501
102
{ACAD_XDICTIONARY
360
502
102
}
330
1F
100
AcDbEntity
  8
dim @ 1
  6
ByBlock
 62
     3
100
AcDbMText
 10
-15061.67673008791
 20
-3494.366686491157
 30
0.0
 40
2.5
 41
2.916429696650084
 71
     9
 72
     1
  1

 73
     1
 44
1.0
1001
AcadAnnotative
1000
AnnotativeData
1002
{
1070
     1
1070
     0
1002
}
1001
ACAD
1000
MTEXTBEGIN
1070
    73
1070
     1
1070
    44
1040
1.0
1070
    74
1070
     0
1000
MTEXTEND
  0
MTEXT
  5
506
102
{ACAD_XDICTIONARY
360
507
102
}
330
1F
100
AcDbEntity
  8
dim @ 1
  6
ByBlock
 62
     3
100
AcDbMText
 10
-14850.09251431392
 20
-3473.096166753477
 30
0.0
 40
2.5
 41
2.916429696650084
 71
     1
 72
     1
  1

 73
     1
 44
1.0
1001
AcadAnnotative
1000
AnnotativeData
1002
{
1070
     1
1070
     0
1002
}
1001
ACAD
1000
MTEXTBEGIN
1070
    73
1070
     1
1070
    44
1040
1.0
1070
    74
1070
     0
1000
MTEXTEND
  0
MTEXT
  5
50B
102
{ACAD_XDICTIONARY
360
50C
102
}
330
1F
100
AcDbEntity
  8
dim @ 1
  6
ByBlock
 62
     3
100
AcDbMText
 10
-14367.80465259169
 20
-3483.687917377834
 30
0.0
 40
2.5
 41
2.916429696650084
 71
     1
 72
     1
  1

 73
     1
 44
1.0
1001
AcadAnnotative
1000
AnnotativeData
1002
{
1070
     1
1070
     0
1002
}
1001
ACAD
1000
MTEXTBEGIN
1070
    73
1070
     1
1070
    44
1040
1.0
1070
    74
1070
     0
1000
MTEXTEND
  0
MTEXT
  5
510
330
1F
100
AcDbEntity
  8
dim
  6
ByBlock
 62
     3
100
AcDbMText
 10
-15062.63623887849
 20
-3492.878227468992
 30
0.0
 40
2.5
 41
2.916429696650084
 71
     9
 72
     1
  1

 73
     1
 44
1.0
1001
ACAD
1000
MTEXTBEGIN
1070
    73
1070
     1
1070
    44
1040
1.0
1070
    74
1070
     0
1000
MTEXTEND
  0
MTEXT
  5
511
102
{ACAD_XDICTIONARY
360
512
102
}
330
1F
100
AcDbEntity
  8
dim @ 1
  6
ByBlock
 62
     3
100
AcDbMText
 10
-13443.46917278859
 20
-4557.26288870001
 30
0.0
 40
1.8
 41
2.916429696650084
 71
     1
 72
     1
  1

 73
     1
 44
1.0
1001
AcadAnnotative
1000
AnnotativeData
1002
{
1070
     1
1070
     0
1002
}
1001
ACAD
1000
MTEXTBEGIN
1070
    73
1070
     1
1070
    44
1040
1.0
1070
    74
1070
     0
1000
MTEXTEND
  0
MTEXT
  5
516
102
{ACAD_XDICTIONARY
360
517
102
}
330
1F
100
AcDbEntity
  8
dim @ 1
  6
ByBlock
 62
     3
100
AcDbMText
 10
-13447.09567802389
 20
-4534.182332149129
 30
0.0
 40
1.5
 41
2.916429696650084
 71
     1
 72
     1
  1

 73
     1
 44
1.0
1001
AcadAnnotative
1000
AnnotativeData
1002
{
1070
     1
1070
     0
1002
}
1001
ACAD
1000
MTEXTBEGIN
1070
    73
1070
     1
1070
    44
1040
1.0
1070
    74
1070
     0
1000
MTEXTEND
  0
MTEXT
  5
51B
102
{ACAD_XDICTIONARY
360
51C
102
}
330
1F
100
AcDbEntity
  8
dim @ 1
  6
ByBlock
 62
     3
100
AcDbMText
 10
-13399.27669640916
 20
-4549.805939808002
 30
0.0
 40
1.5
 41
2.916429696650084
 71
     1
 72
     1
  1

 73
     1
 44
1.0
1001
AcadAnnotative
1000
AnnotativeData
1002
{
1070
     1
1070
     0
1002
}
1001
ACAD
1000
MTEXTBEGIN
1070
    73
1070
     1
1070
    44
1040
1.0
1070
    74
1070
     0
1000
MTEXTEND
  0
MTEXT
  5
520
102
{ACAD_XDICTIONARY
360
521
102
}
330
1F
100
AcDbEntity
  8
dim @ 1
  6
ByBlock
 62
     3
100
AcDbMText
 10
-13457.37057043346
 20
-4569.890115874403
 30
0.0
 40
1.5
 41
2.916429696650084
 71
     9
 72
     1
  1

 73
     1
 44
1.0
1001
AcadAnnotative
1000
AnnotativeData
1002
{
1070
     1
1070
     0
1002
}
1001
ACAD
1000
MTEXTBEGIN
1070
    73
1070
     1
1070
    44
1040
1.0
1070
    74
1070
     0
1000
MTEXTEND
  0
MTEXT
  5
525
102
{ACAD_XDICTIONARY
360
526
102
}
330
1F
100
AcDbEntity
  8
dim @ 1
  6
ByBlock
 62
     3
100
AcDbMText
 10
-13455.34850808536
 20
-4573.30110986862
 30
0.0
 40
1.5
 41
2.916429696650084
 71
     9
 72
     1
  1

 73
     1
 44
1.0
1001
AcadAnnotative
1000
AnnotativeData
1002
{
1070
     1
1070
     0
1002
}
1001
ACAD
1000
MTEXTBEGIN
1070
    73
1070
     1
1070
    44
1040
1.0
1070
    74
1070
     0
1000
MTEXTEND
  0
MTEXT
  5
52A
102
{ACAD_XDICTIONARY
360
52B
102
}
330
1F
100
AcDbEntity
  8
dim @ 1
  6
ByBlock
 62
     3
100
AcDbMText
 10
-13438.39512687268
 20
-4569.977156666578
 30
0.0
 40
1.5
 41
2.916429696650084
 71
     9
 72
     1
  1

 73
     1
 44
1.0
1001
AcadAnnotative
1000
AnnotativeData
1002
{
1070
     1
1070
     0
1002
}
1001
ACAD
1000
MTEXTBEGIN
1070
    73
1070
     1
1070
    44
1040
1.0
1070
    74
1070
     0
1000
MTEXTEND
  0
MTEXT
  5
52F
102
{ACAD_XDICTIONARY
360
530
102
}
330
1F
100
AcDbEntity
  8
dim @ 1
  6
ByBlock
 62
     3
100
AcDbMText
 10
-13402.67756953007
 20
-3577.078719211398
 30
0.0
 40
1.5
 41
2.916429696650084
 71
     1
 72
     1
  1

 73
     1
 44
1.0
1001
AcadAnnotative
1000
AnnotativeData
1002
{
1070
     1
1070
     0
1002
}
1001
ACAD
1000
MTEXTBEGIN
1070
    73
1070
     1
1070
    44
1040
1.0
1070
    74
1070
     0
1000
MTEXTEND
  0
MTEXT
  5
534
330
1F
100
AcDbEntity
  8
dim
  6
ByBlock
 62
     3
100
AcDbMText
 10
-13350.31697139194
 20
-3535.385432898421
 30
0.0
 40
2.0
 41
2.916429696650084
 71
     1
 72
     1
  1

 73
     1
 44
1.0
1001
ACAD
1000
MTEXTBEGIN
1070
    73
1070
     1
1070
    44
1040
1.0
1070
    74
1070
     0
1000
MTEXTEND
  0
MTEXT
  5
535
330
1F
100
AcDbEntity
  8
dim
  6
ByBlock
 62
     3
100
AcDbMText
 10
-13350.31697139194
 20
-3535.385432898421
 30
0.0
 40
2.0
 41
2.916429696650084
 71
     1
 72
     1
  1

 73
     1
 44
1.0
1001
ACAD
1000
MTEXTBEGIN
1070
    73
1070
     1
1070
    44
1040
1.0
1070
    74
1070
     0
1000
MTEXTEND
  0
MTEXT
  5
536
330
1F
100
AcDbEntity
  8
dim
  6
ByBlock
 62
     3
100
AcDbMText
 10
-13510.51254333674
 20
-3563.342721067011
 30
0.0
 40
1.5
 41
2.916429696650084
 71
     9
 72
     1
  1

 73
     1
 44
1.0
1001
ACAD
1000
MTEXTBEGIN
1070
    73
1070
     1
1070
    44
1040
1.0
1070
    74
1070
     0
1000
MTEXTEND
  0
MTEXT
  5
537
330
1F
100
AcDbEntity
  8
dim
  6
ByBlock
 62
     3
100
AcDbMText
 10
-13424.58848626786
 20
-3606.407378864715
 30
0.0
 40
2.5
 41
2.916429696650084
 71
     9
 72
     1
  1

 73
     1
 44
1.0
1001
ACAD
1000
MTEXTBEGIN
1070
    73
1070
     1
1070
    44
1040
1.0
1070
    74
1070
     0
1000
MTEXTEND
  0
MTEXT
  5
538
330
1F
100
AcDbEntity
  8
dim
  6
ByBlock
 62
     3
100
AcDbMText
 10
-13684.57395268242
 20
-3079.587483399274
 30
0.0
 40
1.5
 41
2.916429696650084
 71
     1
 72
     1
  1

 73
     1
 44
1.0
1001
ACAD
1000
MTEXTBEGIN
1070
    73
1070
     1
1070
    44
1040
1.0
1070
    74
1070
     0
1000
MTEXTEND
  0
MTEXT
  5
539
102
{ACAD_XDICTIONARY
360
53A
102
}
330
1F
100
AcDbEntity
  8
dim @ 1
  6
ByBlock
 62
     3
100
AcDbMText
 10
-13569.87793872856
 20
-3100.022958789971
 30
0.0
 40
1.5
 41
2.916429696650084
 71
     1
 72
     1
  1

 73
     1
 44
1.0
1001
AcadAnnotative
1000
AnnotativeData
1002
{
1070
     1
1070
     0
1002
}
1001
ACAD
1000
MTEXTBEGIN
1070
    73
1070
     1
1070
    44
1040
1.0
1070
    74
1070
     0
1000
MTEXTEND
  0
MTEXT
  5
53E
102
{ACAD_XDICTIONARY
360
53F
102
}
330
1F
100
AcDbEntity
  8
dim @ 1
  6
ByBlock
 62
     3
100
AcDbMText
 10
-12463.91781628167
 20
-3168.014525640899
 30
0.0
 40
5.0
 41
2.916429696650084
 71
     1
 72
     1
  1

 73
     1
 44
1.0
1001
AcadAnnotative
1000
AnnotativeData
1002
{
1070
     1
1070
     0
1002
}
1001
ACAD
1000
MTEXTBEGIN
1070
    73
1070
     1
1070
    44
1040
1.0
1070
    74
1070
     0
1000
MTEXTEND
  0
MTEXT
  5
543
102
{ACAD_XDICTIONARY
360
544
102
}
330
1F
100
AcDbEntity
  8
dim @ 1
  6
ByBlock
 62
     3
100
AcDbMText
 10
-13336.62205500516
 20
-3229.984029132781
 30
0.0
 40
2.5
 41
2.916429696650084
 71
     1
 72
     1
  1

 73
     1
 44
1.0
1001
AcadAnnotative
1000
AnnotativeData
1002
{
1070
     1
1070
     0
1002
}
1001
ACAD
1000
MTEXTBEGIN
1070
    73
1070
     1
1070
    44
1040
1.0
1070
    74
1070
     0
1000
MTEXTEND
  0
MTEXT
  5
548
330
1F
100
AcDbEntity
  8
dim
  6
ByBlock
 62
     3
100
AcDbMText
 10
-16255.83043035405
 20
-3288.723327534517
 30
0.0
 40
2.5
 41
2.916429696650084
 71
     9
 72
     1
  1

 73
     1
 44
1.0
1001
ACAD
1000
MTEXTBEGIN
1070
    73
1070
     1
1070
    44
1040
1.0
1070
    74
1070
     0
1000
MTEXTEND
  0
MTEXT
  5
549
330
1F
100
AcDbEntity
  8
dim
  6
ByBlock
 62
     3
100
AcDbMText
 10
-16181.58028773284
 20
-3118.454072228485
 30
0.0
 40
2.5
 41
2.916429696650084
 71
     1
 72
     1
  1

 73
     1
 44
1.0
1001
ACAD
1000
MTEXTBEGIN
1070
    73
1070
     1
1070
    44
1040
1.0
1070
    74
1070
     0
1000
MTEXTEND
  0
MTEXT
  5
54A
330
1F
100
AcDbEntity
  8
dim
  6
ByBlock
 62
     3
100
AcDbMText
 10
-16270.24860801867
 20
-3173.081985351223
 30
0.0
 40
2.5
 41
2.916429696650084
 71
     9
 72
     1
  1

 73
     1
 44
1.0
1001
ACAD
1000
MTEXTBEGIN
1070
    73
1070
     1
1070
    44
1040
1.0
1070
    74
1070
     0
1000
MTEXTEND
  0
MTEXT
  5
54B
102
{ACAD_XDICTIONARY
360
54C
102
}
330
1F
100
AcDbEntity
  8
dim @ 1
  6
ByBlock
 62
     3
100
AcDbMText
 10
-16212.91754396274
 20
-3113.185742670106
 30
0.0
 40
2.5
 41
2.916429696650084
 71
     9
 72
     1
  1

 73
     1
 44
1.0
1001
AcadAnnotative
1000
AnnotativeData
1002
{
1070
     1
1070
     0
1002
}
1001
ACAD
1000
MTEXTBEGIN
1070
    73
1070
     1
1070
    44
1040
1.0
1070
    74
1070
     0
1000
MTEXTEND
  0
MTEXT
  5
550
102
{ACAD_XDICTIONARY
360
551
102
}
330
1F
100
AcDbEntity
  8
dim @ 1
  6
ByBlock
 62
     3
100
AcDbMText
 10
-15691.0793508435
 20
-3617.382959555047
 30
0.0
 40
2.5
 41
2.916429696650084
 71
     1
 72
     1
  1

 73
     1
 44
1.0
1001
AcadAnnotative
1000
AnnotativeData
1002
{
1070
     1
1070
     0
1002
}
1001
ACAD
1000
MTEXTBEGIN
1070
    73
1070
     1
1070
    44
1040
1.0
1070
    74
1070
     0
1000
MTEXTEND
  0
MTEXT
  5
555
102
{ACAD_XDICTIONARY
360
556
102
}
330
1F
100
AcDbEntity
  8
dim @ 1
  6
ByBlock
 62
     3
100
AcDbMText
 10
-15483.88078293086
 20
-3524.570527163039
 30
0.0
 40
2.5
 41
2.916429696650084
 71
     1
 72
     1
  1

 73
     1
 44
1.0
1001
AcadAnnotative
1000
AnnotativeData
1002
{
1070
     1
1070
     0
1002
}
1001
ACAD
1000
MTEXTBEGIN
1070
    73
1070
     1
1070
    44
1040
1.0
1070
    74
1070
     0
1000
MTEXTEND
  0
MTEXT
  5
55A
102
{ACAD_XDICTIONARY
360
55B
102
}
330
1F
100
AcDbEntity
  8
dim @ 1
  6
ByBlock
 62
     3
100
AcDbMText
 10
-13028.70105902274
 20
-4397.497296138616
 30
0.0
 40
4.0
 41
2.916429696650084
 71
     9
 72
     1
  1

 73
     1
 44
1.0
1001
AcadAnnotative
1000
AnnotativeData
1002
{
1070
     1
1070
     0
1002
}
1001
ACAD
1000
MTEXTBEGIN
1070
    73
1070
     1
1070
    44
1040
1.0
1070
    74
1070
     0
1000
MTEXTEND
  0
MTEXT
  5
55F
102
{ACAD_XDICTIONARY
360
560
102
}
330
1F
100
AcDbEntity
  8
dim @ 1
  6
ByBlock
 62
     3
100
AcDbMText
 10
-12970.57309422768
 20
-4411.190732240371
 30
0.0
 40
4.0
 41
2.916429696650084
 71
     1
 72
     1
  1

 73
     1
 44
1.0
1001
AcadAnnotative
1000
AnnotativeData
1002
{
1070
     1
1070
     0
1002
}
1001
ACAD
1000
MTEXTBEGIN
1070
    73
1070
     1
1070
    44
1040
1.0
1070
    74
1070
     0
1000
MTEXTEND
  0
MTEXT
  5
564
330
1F
100
AcDbEntity
  8
dim
  6
ByBlock
 62
     3
100
AcDbMText
 10
-12960.61249765974
 20
-4383.288626080044
 30
0.0
 40
5.0
 41
2.916429696650084
 71
     1
 72
     1
  1

 73
     1
 44
1.0
1001
ACAD
1000
MTEXTBEGIN
1070
    73
1070
     1
1070
    44
1040
1.0
1070
    74
1070
     0
1000
MTEXTEND
  0
MTEXT
  5
565
330
1F
100
AcDbEntity
  8
dim
  6
ByBlock
 62
     3
100
AcDbMText
 10
-12943.3417500253
 20
-4435.246193019898
 30
0.0
 40
2.5
 41
2.916429696650084
 71
     1
 72
     1
  1

 73
     1
 44
1.0
1001
ACAD
1000
MTEXTBEGIN
1070
    73
1070
     1
1070
    44
1040
1.0
1070
    74
1070
     0
1000
MTEXTEND
  0
MTEXT
  5
566
330
1F
100
AcDbEntity
  8
dim
  6
ByBlock
 62
     3
100
AcDbMText
 10
-13075.31284813877
 20
-4438.270322283043
 30
0.0
 40
2.5
 41
2.916429696650084
 71
     9
 72
     1
  1

 73
     1
 44
1.0
1001
ACAD
1000
MTEXTBEGIN
1070
    73
1070
     1
1070
    44
1040
1.0
1070
    74
1070
     0
1000
MTEXTEND
  0
MTEXT
  5
567
330
1F
100
AcDbEntity
  8
dim
  6
ByBlock
 62
     3
100
AcDbMText
 10
-13038.48339292439
 20
-4361.111986081127
 30
0.0
 40
2.5
 41
2.916429696650084
 71
     1
 72
     1
  1

 73
     1
 44
1.0
1001
ACAD
1000
MTEXTBEGIN
1070
    73
1070
     1
1070
    44
1040
1.0
1070
    74
1070
     0
1000
MTEXTEND
  0
MTEXT
  5
568
330
1F
100
AcDbEntity
  8
dim
  6
ByBlock
 62
     3
100
AcDbMText
 10
-13086.08288522354
 20
-4422.683748683644
 30
0.0
 40
2.5
 41
2.916429696650084
 71
     9
 72
     1
  1

 73
     1
 44
1.0
1001
ACAD
1000
MTEXTBEGIN
1070
    73
1070
     1
1070
    44
1040
1.0
1070
    74
1070
     0
1000
MTEXTEND
  0
MTEXT
  5
569
102
{ACAD_XDICTIONARY
360
56A
102
}
330
1F
100
AcDbEntity
  8
dim @ 1
  6
ByBlock
 62
     3
100
AcDbMText
 10
-12069.53419943818
 20
-3499.427458364982
 30
0.0
 40
4.0
 41
2.916429696650084
 71
     9
 72
     1
  1

 73
     1
 44
1.0
1001
AcadAnnotative
1000
AnnotativeData
1002
{
1070
     1
1070
     0
1002
}
1001
ACAD
1000
MTEXTBEGIN
1070
    73
1070
     1
1070
    44
1040
1.0
1070
    74
1070
     0
1000
MTEXTEND
  0
MTEXT
  5
56E
102
{ACAD_XDICTIONARY
360
56F
102
}
330
1F
100
AcDbEntity
  8
dim @ 1
  6
ByBlock
 62
     3
100
AcDbMText
 10
-12028.18750506257
 20
-3456.268283663745
 30
0.0
 40
4.0
 41
2.916429696650084
 71
     9
 72
     1
  1

 73
     1
 44
1.0
1001
AcadAnnotative
1000
AnnotativeData
1002
{
1070
     1
1070
     0
1002
}
1001
ACAD
1000
MTEXTBEGIN
1070
    73
1070
     1
1070
    44
1040
1.0
1070
    74
1070
     0
1000
MTEXTEND
  0
MTEXT
  5
573
102
{ACAD_XDICTIONARY
360
574
102
}
330
1F
100
AcDbEntity
  8
dim @ 1
  6
ByBlock
 62
     3
100
AcDbMText
 10
-11935.21474233045
 20
-3638.357202160746
 30
0.0
 40
4.0
 41
2.916429696650084
 71
     1
 72
     1
  1

 73
     1
 44
1.0
1001
AcadAnnotative
1000
AnnotativeData
1002
{
1070
     1
1070
     0
1002
}
1001
ACAD
1000
MTEXTBEGIN
1070
    73
1070
     1
1070
    44
1040
1.0
1070
    74
1070
     0
1000
MTEXTEND
  0
MTEXT
  5
578
102
{ACAD_XDICTIONARY
360
579
102
}
330
1F
100
AcDbEntity
  8
dim @ 1
  6
ByBlock
 62
     3
100
AcDbMText
 10
-10906.45033656505
 20
-3472.357831479474
 30
0.0
 40
5.0
 41
2.916429696650084
 71
     9
 72
     1
  1

 73
     1
 44
1.0
1001
AcadAnnotative
1000
AnnotativeData
1002
{
1070
     1
1070
     0
1002
}
1001
ACAD
1000
MTEXTBEGIN
1070
    73
1070
     1
1070
    44
1040
1.0
1070
    74
1070
     0
1000
MTEXTEND
  0
MTEXT
  5
57D
102
{ACAD_XDICTIONARY
360
57E
102
}
330
1F
100
AcDbEntity
  8
dim @ 1
  6
ByBlock
 62
     3
100
AcDbMText
 10
-10900.31717419137
 20
-3486.423728461468
 30
0.0
 40
5.0
 41
2.916429696650084
 71
     9
 72
     1
  1

 73
     1
 44
1.0
1001
AcadAnnotative
1000
AnnotativeData
1002
{
1070
     1
1070
     0
1002
}
1001
ACAD
1000
MTEXTBEGIN
1070
    73
1070
     1
1070
    44
1040
1.0
1070
    74
1070
     0
1000
MTEXTEND
  0
MTEXT
  5
582
102
{ACAD_XDICTIONARY
360
583
102
}
330
1F
100
AcDbEntity
  8
dim @ 1
  6
ByBlock
 62
     3
100
AcDbMText
 10
-10823.14517759399
 20
-3439.887085229305
 30
0.0
 40
5.0
 41
2.916429696650084
 71
     1
 72
     1
  1

 73
     1
 44
1.0
1001
AcadAnnotative
1000
AnnotativeData
1002
{
1070
     1
1070
     0
1002
}
1001
ACAD
1000
MTEXTBEGIN
1070
    73
1070
     1
1070
    44
1040
1.0
1070
    74
1070
     0
1000
MTEXTEND
  0
MTEXT
  5
587
102
{ACAD_XDICTIONARY
360
588
102
}
330
1F
100
AcDbEntity
  8
dim @ 1
  6
ByBlock
 62
     3
100
AcDbMText
 10
-7198.040542357751
 20
-3510.529080760237
 30
0.0
 40
5.0
 41
2.916429696650084
 71
     1
 72
     1
  1

 73
     1
 44
1.0
1001
AcadAnnotative
1000
AnnotativeData
1002
{
1070
     1
1070
     0
1002
}
1001
ACAD
1000
MTEXTBEGIN
1070
    73
1070
     1
1070
    44
1040
1.0
1070
    74
1070
     0
1000
MTEXTEND
  0
MTEXT
  5
58C
102
{ACAD_XDICTIONARY
360
58D
102
}
330
1F
100
AcDbEntity
  8
dim @ 1
  6
ByBlock
 62
     3
100
AcDbMText
 10
-7206.110502915237
 20
-3231.04297613636
 30
0.0
 40
5.0
 41
2.916429696650084
 71
     1
 72
     1
  1

 73
     1
 44
1.0
1001
AcadAnnotative
1000
AnnotativeData
1002
{
1070
     1
1070
     0
1002
}
1001
ACAD
1000
MTEXTBEGIN
1070
    73
1070
     1
1070
    44
1040
1.0
1070
    74
1070
     0
1000
MTEXTEND
  0
MTEXT
  5
591
102
{ACAD_XDICTIONARY
360
592
102
}
330
1F
100
AcDbEntity
  8
dim @ 1
  6
ByBlock
 62
     3
100
AcDbMText
 10
-7224.667253634492
 20
-3401.144706983144
 30
0.0
 40
5.0
 41
2.916429696650084
 71
     1
 72
     1
  1

 73
     1
 44
1.0
1001
AcadAnnotative
1000
AnnotativeData
1002
{
1070
     1
1070
     0
1002
}
1001
ACAD
1000
MTEXTBEGIN
1070
    73
1070
     1
1070
    44
1040
1.0
1070
    74
1070
     0
1000
MTEXTEND
  0
MTEXT
  5
596
102
{ACAD_XDICTIONARY
360
597
102
}
330
1F
100
AcDbEntity
  8
dim @ 1
  6
ByBlock
 62
     3
100
AcDbMText
 10
-6313.772650298902
 20
-3627.390993753095
 30
0.0
 40
5.0
 41
2.916429696650084
 71
     1
 72
     1
  1

 73
     1
 44
1.0
1001
AcadAnnotative
1000
AnnotativeData
1002
{
1070
     1
1070
     0
1002
}
1001
ACAD
1000
MTEXTBEGIN
1070
    73
1070
     1
1070
    44
1040
1.0
1070
    74
1070
     0
1000
MTEXTEND
  0
MTEXT
  5
59B
102
{ACAD_XDICTIONARY
360
59C
102
}
330
1F
100
AcDbEntity
  8
dim @ 1
  6
ByBlock
 62
     3
100
AcDbMText
 10
-6314.728640203501
 20
-3704.402441491855
 30
0.0
 40
5.0
 41
2.916429696650084
 71
     1
 72
     1
  1

 73
     1
 44
1.0
1001
AcadAnnotative
1000
AnnotativeData
1002
{
1070
     1
1070
     0
1002
}
1001
ACAD
1000
MTEXTBEGIN
1070
    73
1070
     1
1070
    44
1040
1.0
1070
    74
1070
     0
1000
MTEXTEND
  0
LINE
  5
5A0
330
1F
100
AcDbEntity
  8
中心线
370
    -3
100
AcDbLine
 10
715.0568364951777
 20
330.6351553761999
 30
0.0
 11
715.0568364951777
 21
362.0162915446838
 31
0.0
  0
LINE
  5
5A1
330
1F
100
AcDbEntity
  8
中心线
370
    -3
100
AcDbLine
 10
699.2498627459261
 20
346.544781048123
 30
0.0
 11
731.1800392799396
 21
346.5447810481248
 31
0.0
  0
LINE
  5
5A2
330
1F
100
AcDbEntity
  8
1.1L
  6
ByBlock
370
    40
100
AcDbLine
 10
728.5157397890269
 20
464.7039833482343
 30
0.0
 11
728.5157397890269
 21
459.5907346941815
 31
0.0
  0
LINE
  5
5A3
102
{ACAD_REACTORS
330
60A
102
}
330
1F
100
AcDbEntity
  8
1.1L
  6
ByBlock
370
    40
100
AcDbLine
 10
729.0157397890269
 20
459.5907346941815
 30
0.0
 11
728.5157397890269
 21
459.5907346941823
 31
0.0
  0
LINE
  5
5A4
330
1F
100
AcDbEntity
  8
1.1L
  6
ByBlock
370
    40
100
AcDbLine
 10
700.9157397890285
 20
414.9907346941819
 30
0.0
 11
700.9157397890285
 21
408.2907346941813
 31
0.0
  0
LINE
  5
5A5
330
1F
100
AcDbEntity
  8
1.1L
  6
ByBlock
370
    40
100
AcDbLine
 10
701.5157397890269
 20
464.7039833482343
 30
0.0
 11
701.5157397890269
 21
459.5907346941815
 31
0.0
  0
ARC
  5
5A6
330
1F
100
AcDbEntity
  8
1.1L
  6
ByBlock
370
    40
100
AcDbCircle
 10
702.0157397890271
 20
464.7039833482343
 30
0.0
 40
0.5
100
AcDbArc
 50
119.9999999999989
 51
180.0
  0
LINE
  5
5A7
330
1F
100
AcDbEntity
  8
1.1L
  6
ByBlock
370
    40
100
AcDbLine
 10
700.0157397890269
 20
458.5907346941815
 30
0.0
 11
700.0157397890269
 21
415.8907346941815
 31
0.0
  0
LINE
  5
5A8
330
1F
100
AcDbEntity
  8
1.1L
  6
ByBlock
370
    40
100
AcDbLine
 10
701.0157397890269
 20
459.5907346941823
 30
0.0
 11
700.0157397890269
 21
458.5907346941815
 31
0.0
  0
LINE
  5
5A9
330
1F
100
AcDbEntity
  8
1L
  6
ByBlock
370
    -3
100
AcDbLine
 10
700.5157397890269
 20
459.0907346941823
 30
0.0
 11
700.5157397890269
 21
415.3907346941815
 31
0.0
  0
LINE
  5
5AA
330
1F
100
AcDbEntity
  8
1.1L
  6
ByBlock
370
    40
100
AcDbLine
 10
706.0157397890271
 20
467.5907346941815
 30
0.0
 11
721.0157397890269
 21
467.5907346941815
 31
0.0
  0
LINE
  5
5AB
330
1F
100
AcDbEntity
  8
1.1L
  6
ByBlock
370
    40
100
AcDbLine
 10
701.0157397890269
 20
459.5907346941823
 30
0.0
 11
728.5157397890269
 21
459.5907346941823
 31
0.0
  0
ARC
  5
5AC
330
1F
100
AcDbEntity
  8
1.1L
  6
ByBlock
370
    40
100
AcDbCircle
 10
701.2157397890277
 20
408.2907346941813
 30
0.0
 40
0.3
100
AcDbArc
 50
180.0
 51
270.0
  0
LINE
  5
5AD
330
1F
100
AcDbEntity
  8
1.1L
  6
ByBlock
370
    40
100
AcDbLine
 10
706.0157397890271
 20
467.5907346941815
 30
0.0
 11
701.7657397890269
 21
465.1369960501263
 31
0.0
  0
LINE
  5
5AE
330
1F
100
AcDbEntity
  8
1.1L
  6
ByBlock
370
    40
100
AcDbLine
 10
700.0157397890269
 20
415.8907346941815
 30
0.0
 11
700.9157397890285
 21
414.9907346941811
 31
0.0
  0
LINE
  5
5AF
330
1F
100
AcDbEntity
  8
1.1L
  6
ByBlock
370
    40
100
AcDbLine
 10
729.1157397890255
 20
414.9907346941811
 30
0.0
 11
729.1157397890255
 21
408.2907346941813
 31
0.0
  0
ARC
  5
5B0
330
1F
100
AcDbEntity
  8
1.1L
  6
ByBlock
370
    40
100
AcDbCircle
 10
728.015739789027
 20
464.7039833482343
 30
0.0
 40
0.5
100
AcDbArc
 50
0.0
 51
60.00000000000109
  0
LINE
  5
5B1
330
1F
100
AcDbEntity
  8
1.1L
  6
ByBlock
370
    40
100
AcDbLine
 10
730.0157397890269
 20
458.5907346941805
 30
0.0
 11
730.0157397890269
 21
415.8907346941806
 31
0.0
  0
LINE
  5
5B2
330
1F
100
AcDbEntity
  8
1L
  6
ByBlock
370
    -3
100
AcDbLine
 10
729.5157397890269
 20
459.0907346941815
 30
0.0
 11
729.5157397890269
 21
415.3907346941807
 31
0.0
  0
LINE
  5
5B3
102
{ACAD_REACTORS
330
610
102
}
330
1F
100
AcDbEntity
  8
1.1L
  6
ByBlock
370
    40
100
AcDbLine
 10
724.015739789027
 20
467.5907346941815
 30
0.0
 11
721.0157397890269
 21
467.5907346941815
 31
0.0
  0
LINE
  5
5B4
330
1F
100
AcDbEntity
  8
1.1L
  6
ByBlock
370
    40
100
AcDbLine
 10
730.0157397890269
 20
458.5907346941805
 30
0.0
 11
729.0157397890269
 21
459.5907346941815
 31
0.0
  0
ARC
  5
5B5
330
1F
100
AcDbEntity
  8
1.1L
  6
ByBlock
370
    40
100
AcDbCircle
 10
728.8157397890262
 20
408.2907346941813
 30
0.0
 40
0.3
100
AcDbArc
 50
270.0
 51
0.0
  0
LINE
  5
5B6
330
1F
100
AcDbEntity
  8
1.1L
  6
ByBlock
370
    40
100
AcDbLine
 10
724.015739789027
 20
467.5907346941815
 30
0.0
 11
728.2657397890269
 21
465.1369960501263
 31
0.0
  0
LINE
  5
5B7
330
1F
100
AcDbEntity
  8
1.1L
  6
ByBlock
370
    40
100
AcDbLine
 10
730.0157397890269
 20
415.8907346941806
 30
0.0
 11
729.1157397890255
 21
414.9907346941811
 31
0.0
  0
LINE
  5
5B8
330
1F
100
AcDbEntity
  8
1.1L
  6
ByBlock
370
    40
100
AcDbLine
 10
709.265739789027
 20
474.0957346941761
 30
0.0
 11
709.265739789027
 21
468.8457346941761
 31
0.0
  0
LINE
  5
5B9
330
1F
100
AcDbEntity
  8
1.1L
  6
ByBlock
370
    40
100
AcDbLine
 10
709.265739789027
 20
468.8457346941778
 30
0.0
 11
709.0157397890269
 21
468.595734694176
 31
0.0
  0
LINE
  5
5BA
330
1F
100
AcDbEntity
  8
1.1L
  6
ByBlock
370
    40
100
AcDbLine
 10
720.7657397890271
 20
468.8457346941778
 30
0.0
 11
721.0157397890269
 21
468.595734694176
 31
0.0
  0
LINE
  5
5BB
102
{ACAD_REACTORS
330
616
102
}
330
1F
100
AcDbEntity
  8
1.1L
  6
ByBlock
370
    40
100
AcDbLine
 10
709.7657397890269
 20
474.5957346941761
 30
0.0
 11
720.2657397890269
 21
474.5957346941761
 31
0.0
  0
ARC
  5
5BC
330
1F
100
AcDbEntity
  8
1.1L
  6
ByBlock
370
    40
100
AcDbCircle
 10
709.7657397890269
 20
474.0957346941761
 30
0.0
 40
0.5
100
AcDbArc
 50
90.0
 51
180.0
  0
LINE
  5
5BD
330
1F
100
AcDbEntity
  8
1.1L
  6
ByBlock
370
    40
100
AcDbLine
 10
720.7657397890271
 20
474.0957346941761
 30
0.0
 11
720.7657397890271
 21
468.8457346941761
 31
0.0
  0
ARC
  5
5BE
330
1F
100
AcDbEntity
  8
1.1L
  6
ByBlock
370
    40
100
AcDbCircle
 10
720.2657397890269
 20
474.0957346941761
 30
0.0
 40
0.5
100
AcDbArc
 50
0.0
 51
90.0
  0
ARC
  5
5BF
102
{ACAD_REACTORS
330
61C
102
}
330
1F
100
AcDbEntity
  8
1.1L
370
    40
100
AcDbCircle
 10
729.0157397890269
 20
406.9457346941791
 30
0.0
 40
0.1
100
AcDbArc
 50
270.0
 51
0.0
  0
LINE
  5
5C0
330
1F
100
AcDbEntity
  8
1.1L
370
    40
100
AcDbLine
 10
700.9157397890285
 20
407.8907346941806
 30
0.0
 11
700.9157397890285
 21
406.9457346941801
 31
0.0
  0
ARC
  5
5C1
330
1F
100
AcDbEntity
  8
1.1L
370
    40
100
AcDbCircle
 10
701.0157397890269
 20
407.8907346941806
 30
0.0
 40
0.1
100
AcDbArc
 50
90.0
 51
179.9999999998957
  0
LINE
  5
5C2
102
{ACAD_REACTORS
330
5F8
330
604
330
60A
330
616
102
}
330
1F
100
AcDbEntity
  8
1.1L
370
    40
100
AcDbLine
 10
704.8257397890248
 20
405.5957346941798
 30
0.0
 11
725.2057397890292
 21
405.5957346941788
 31
0.0
  0
ARC
  5
5C3
330
1F
100
AcDbEntity
  8
1.1L
  6
ByBlock
370
    40
100
AcDbCircle
 10
704.8257397890248
 20
405.6957346941801
 30
0.0
 40
0.1
100
AcDbArc
 50
180.0
 51
270.0
  0
ARC
  5
5C4
102
{ACAD_REACTORS
330
610
102
}
330
1F
100
AcDbEntity
  8
1.1L
  6
ByBlock
100
AcDbCircle
 10
725.2057397890292
 20
405.6957346941791
 30
0.0
 40
0.1
100
AcDbArc
 50
270.0
 51
0.0
  0
ARC
  5
5C5
102
{ACAD_REACTORS
330
61C
102
}
330
1F
100
AcDbEntity
  8
1.1L
370
    40
100
AcDbCircle
 10
701.0157397890269
 20
406.9457346941801
 30
0.0
 40
0.1
100
AcDbArc
 50
179.9999999998957
 51
270.0
  0
LINE
  5
5C6
330
1F
100
AcDbEntity
  8
1.1L
370
    40
100
AcDbLine
 10
729.1157397890255
 20
407.8907346941806
 30
0.0
 11
729.1157397890255
 21
406.9457346941791
 31
0.0
  0
LINE
  5
5C7
330
1F
100
AcDbEntity
  8
1.1L
370
    40
100
AcDbLine
 10
701.0157397890269
 20
406.8457346941788
 30
0.0
 11
729.0157397890269
 21
406.8457346941788
 31
0.0
  0
LINE
  5
5C8
330
1F
100
AcDbEntity
  8
1.1L
  6
ByBlock
100
AcDbLine
 10
725.3057397890278
 20
405.8457346941796
 30
0.0
 11
725.3057397890278
 21
405.6957346941791
 31
0.0
  0
LINE
  5
5C9
330
1F
100
AcDbEntity
  8
1.1L
370
    40
100
AcDbLine
 10
726.9956310610632
 20
405.8457346941793
 30
0.0
 11
703.0358485169907
 21
405.8457346941796
 31
0.0
  0
LINE
  5
5CA
330
1F
100
AcDbEntity
  8
1.1L
  6
ByBlock
370
    40
100
AcDbLine
 10
704.7257397890262
 20
405.8457346941796
 30
0.0
 11
704.7257397890262
 21
405.6957346941801
 31
0.0
  0
LINE
  5
5CB
330
1F
100
AcDbEntity
  8
1.1L
  6
ByBlock
370
    40
100
AcDbLine
 10
702.1257397890275
 20
406.8457346941807
 30
0.0
 11
703.0358485169907
 21
405.8457346941796
 31
0.0
  0
LINE
  5
5CC
330
1F
100
AcDbEntity
  8
1.1L
  6
ByBlock
370
    40
100
AcDbLine
 10
727.9057397890263
 20
406.8457346941788
 30
0.0
 11
726.9956310610632
 21
405.8457346941788
 31
0.0
  0
ARC
  5
5CD
330
1F
100
AcDbEntity
  8
1.1L
370
    40
100
AcDbCircle
 10
729.0157397890269
 20
407.8907346941806
 30
0.0
 40
0.1
100
AcDbArc
 50
0.0
 51
90.0
  0
LINE
  5
5CE
330
1F
100
AcDbEntity
  8
1.1L
370
    40
100
AcDbLine
 10
729.0157397890269
 20
407.9907346941811
 30
0.0
 11
701.0157397890269
 21
407.9907346941811
 31
0.0
  0
LINE
  5
5CF
330
1F
100
AcDbEntity
  8
1.1L
  6
ByBlock
370
    40
100
AcDbLine
 10
709.265739789027
 20
478.2640092766508
 30
0.0
 11
709.265739789027
 21
474.5957346941761
 31
0.0
  0
LINE
  5
5D0
330
1F
100
AcDbEntity
  8
1.1L
  6
ByBlock
370
    40
100
AcDbLine
 10
709.265739789027
 20
474.5957346941761
 30
0.0
 11
718.4157397890285
 21
474.5957346941761
 31
0.0
  0
LINE
  5
5D1
330
1F
100
AcDbEntity
  8
1.1L
  6
ByBlock
370
    40
100
AcDbLine
 10
720.7657397890271
 20
478.2640092766508
 30
0.0
 11
720.7657397890271
 21
474.5957346941761
 31
0.0
  0
LINE
  5
5D2
330
1F
100
AcDbEntity
  8
1.1L
  6
ByBlock
370
    40
100
AcDbLine
 10
720.7657397890271
 20
474.5957346941761
 30
0.0
 11
718.4157397890285
 21
474.5957346941761
 31
0.0
  0
ARC
  5
5D3
330
1F
100
AcDbEntity
  8
1.1L
  6
ByBlock
370
    40
100
AcDbCircle
 10
715.0157397890271
 20
428.5957346941761
 30
0.0
 40
50.0
100
AcDbArc
 50
83.39637495138344
 51
96.60362504861657
  0
LINE
  5
5D4
330
1F
100
AcDbEntity
  8
1.1L
  6
ByBlock
370
    40
100
AcDbLine
 10
712.1762856161276
 20
474.5957346941761
 30
0.0
 11
712.1762856161276
 21
478.2640092766498
 31
0.0
  0
LINE
  5
5D5
330
1F
100
AcDbEntity
  8
1.1L
  6
ByBlock
370
    40
100
AcDbLine
 10
717.8551939619263
 20
474.5957346941761
 30
0.0
 11
717.8551939619263
 21
478.2640092766498
 31
0.0
  0
LINE
  5
5D6
330
1F
100
AcDbEntity
  8
1L
  6
ByBlock
370
    40
100
AcDbLine
 10
712.1762856161276
 20
478.2640092766508
 30
0.0
 11
717.8551939619263
 21
474.5957346941761
 31
0.0
  0
LINE
  5
5D7
330
1F
100
AcDbEntity
  8
1L
  6
ByBlock
370
    40
100
AcDbLine
 10
712.1762856161276
 20
474.5957346941761
 30
0.0
 11
717.8551939619263
 21
478.2640092766508
 31
0.0
  0
LINE
  5
5D8
330
1F
100
AcDbEntity
  8
1.1L
  6
ByBlock
370
    40
100
AcDbLine
 10
709.265739789027
 20
478.2640092766508
 30
0.0
 11
720.7657397890271
 21
478.2640092766508
 31
0.0
  0
LINE
  5
5D9
102
{ACAD_REACTORS
330
5F2
102
}
330
1F
100
AcDbEntity
  8
1L
  6
ByBlock
370
    40
100
AcDbLine
 10
709.0157397890306
 20
467.5907346941815
 30
0.0
 11
709.0157397890269
 21
468.595734694176
 31
0.0
  0
LINE
  5
5DA
102
{ACAD_REACTORS
330
5F2
102
}
330
1F
100
AcDbEntity
  8
1L
  6
ByBlock
370
    40
100
AcDbLine
 10
721.0157397890269
 20
467.5907346941815
 30
0.0
 11
721.015739789096
 21
468.5957346941069
 31
0.0
  0
LINE
  5
5DB
102
{ACAD_REACTORS
330
604
102
}
330
1F
100
AcDbEntity
  8
1L
  6
ByBlock
370
    40
100
AcDbLine
 10
700.9157397890285
 20
414.9907346941811
 30
0.0
 11
729.1157397890255
 21
414.9907346941811
 31
0.0
  0
LINE
  5
5DC
102
{ACAD_REACTORS
330
5F2
102
}
330
1F
100
AcDbEntity
  8
1L
  6
ByBlock
370
    40
100
AcDbLine
 10
709.0157397890962
 20
468.5957346941843
 30
0.0
 11
721.015739789096
 21
468.5957346941069
 31
0.0
  0
LINE
  5
5DD
330
1F
100
AcDbEntity
  8
1L
  6
ByBlock
370
    40
100
AcDbLine
 10
709.265739789027
 20
468.8457346941778
 30
0.0
 11
720.7657397890271
 21
468.8457346941778
 31
0.0
  0
LINE
  5
5DE
330
1F
100
AcDbEntity
  8
1.1L
  6
CENTER
 62
     1
 48
0.1
370
    -3
100
AcDbLine
 10
715.0157397890271
 20
480.3555808719123
 30
0.0
 11
715.0157397890271
 21
405.2154744341343
 31
0.0
  0
LINE
  5
5DF
330
1F
100
AcDbEntity
  8
1.1L
  6
ByBlock
370
    40
100
AcDbLine
 10
722.3999275050537
 20
464.421388489641
 30
0.0
 11
722.3999275050537
 21
459.5907346941823
 31
0.0
  0
LINE
  5
5E0
330
1F
100
AcDbEntity
  8
1.1L
  6
ByBlock
370
    40
100
AcDbLine
 10
721.4270196646886
 20
464.4256303870545
 30
0.0
 11
721.4270196646886
 21
459.5907346941823
 31
0.0
  0
ARC
  5
5E1
330
1F
100
AcDbEntity
  8
0
370
    40
100
AcDbCircle
 10
703.8209110735678
 20
448.2715583120555
 30
0.0
 40
16.59332417632844
100
AcDbArc
 50
76.72347694980054
 51
97.9854491915688
  0
ARC
  5
5E2
330
1F
100
AcDbEntity
  8
0
370
    40
100
AcDbCircle
 10
715.0154433347653
 20
440.2617795150283
 30
0.0
 40
25.0
100
AcDbArc
 50
75.13970476850641
 51
104.8597831116891
  0
ARC
  5
5E3
330
1F
100
AcDbEntity
  8
0
370
    40
100
AcDbCircle
 10
726.2105579354556
 20
448.2725082686504
 30
0.0
 40
16.59238489997805
100
AcDbArc
 50
82.01405895722698
 51
103.2771380775729
  0
LINE
  5
5E4
330
1F
100
AcDbEntity
  8
1.1L
  6
ByBlock
370
    40
100
AcDbLine
 10
707.6315520730003
 20
464.421388489641
 30
0.0
 11
707.6315520730003
 21
459.5907346941823
 31
0.0
  0
ARC
  5
5E5
330
1F
100
AcDbEntity
  8
0
  6
ByBlock
370
    40
100
AcDbCircle
 10
721.8999266162772
 20
461.3164206358217
 30
0.0
 40
3.144968403978528
100
AcDbArc
 50
80.85204838665614
 51
98.64833331690704
  0
ARC
  5
5E6
330
1F
100
AcDbEntity
  8
0
  6
ByBlock
370
    40
100
AcDbCircle
 10
708.1315529617767
 20
461.3164206358217
 30
0.0
 40
3.144968403978528
100
AcDbArc
 50
81.35166668330397
 51
99.14795161323835
  0
LINE
  5
5E7
330
1F
100
AcDbEntity
  8
1.1L
  6
ByBlock
370
    40
100
AcDbLine
 10
708.6044599133656
 20
464.4256303870545
 30
0.0
 11
708.6044599133656
 21
459.5907346941823
 31
0.0
  0
CIRCLE
  5
5E8
330
1F
100
AcDbEntity
  8
1.1L
370
    40
100
AcDbCircle
 10
715.0568364951777
 20
346.5447810481239
 30
0.0
 40
6.0
  0
ARC
  5
5E9
102
{ACAD_REACTORS
330
629
102
}
330
1F
100
AcDbEntity
  8
1.1L
  6
ByBlock
370
    40
100
AcDbCircle
 10
715.0568364951777
 20
346.5447810481239
 30
0.0
 40
5.75
100
AcDbArc
 50
299.591845793911
 51
60.40815420608897
  0
ARC
  5
5EA
330
1F
100
AcDbEntity
  8
1.1L
  6
ByBlock
370
    40
100
AcDbCircle
 10
715.0568364951777
 20
346.5447810481239
 30
0.0
 40
5.75
100
AcDbArc
 50
119.591845793911
 51
240.408154206089
  0
LINE
  5
5EB
102
{ACAD_REACTORS
330
629
102
}
330
1F
100
AcDbEntity
  8
1.1L
 48
0.24
370
    40
100
AcDbLine
 10
712.2173823222782
 20
341.5447810481239
 30
0.0
 11
717.8962906680772
 21
341.5447810481239
 31
0.0
  0
LINE
  5
5EC
330
1F
100
AcDbEntity
  8
1.1L
 48
0.24
370
    40
100
AcDbLine
 10
712.2173823222782
 20
351.5447810481238
 30
0.0
 11
717.8962906680772
 21
351.5447810481238
 31
0.0
  0
CIRCLE
  5
5ED
330
1F
100
AcDbEntity
  8
1.1L
100
AcDbCircle
 10
715.0568364951777
 20
346.5447810481239
 30
0.0
 40
7.0
  0
CIRCLE
  5
5EE
330
1F
100
AcDbEntity
  8
1.1L
  6
ByBlock
100
AcDbCircle
 10
715.0568364951777
 20
346.5447810481248
 30
0.0
 40
15.0
  0
CIRCLE
  5
5EF
330
1F
100
AcDbEntity
  8
1.1L
  6
ByBlock
100
AcDbCircle
 10
715.0568364951777
 20
346.5447810481248
 30
0.0
 40
14.04109670615071
  0
DIMENSION
  5
5F0
102
{ACAD_XDICTIONARY
360
5F1
102
}
102
{ACAD_REACTORS
330
5F2
102
}
330
1F
100
AcDbEntity
  8
dim @ 1
  6
ByBlock
100
AcDbDimension
  2
*D11
 10
721.015739789096
 20
485.9294685828073
 30
0.0
 11
715.0157397890634
 21
485.9294685828073
 31
0.0
 70
   128
  1
{\fISOCPEUR|b0|i0|c0|p34;%%C}<>
 71
     5
 42
12.00000000006912
  3
副本 ISO-25
100
AcDbAlignedDimension
 13
709.0157397890269
 23
468.5957346941843
 33
0.0
 14
721.015739789096
 24
468.5957346941069
 34
0.0
100
AcDbRotatedDimension
1001
AcadAnnotative
1000
AnnotativeData
1002
{
1070
     1
1070
     0
1002
}
1001
ACAD
1000
DSTYLE
1002
{
1070
    40
1040
1.0
1070
   279
1070
     0
1070
   289
1070
     3
1070
   174
1070
     0
1070
   175
1070
     0
1070
   172
1070
     1
1070
    41
1040
2.0
1070
    42
1040
0.4997500000000001
1070
    44
1040
0.4997500000000001
1070
   140
1040
2.5
1070
   144
1040
1.0
1070
   147
1040
0.4997500000000001
1002
}
  0
DIMENSION
  5
5F6
102
{ACAD_XDICTIONARY
360
5F7
102
}
102
{ACAD_REACTORS
330
5F8
102
}
330
1F
100
AcDbEntity
  8
dim @ 1
  6
ByBlock
100
AcDbDimension
  2
*D12
 10
756.8186404632707
 20
405.5957346941788
 30
0.0
 11
756.8186404632704
 21
442.0957346941778
 31
0.0
 70
   128
 71
     5
 42
72.99999999999726
  3
副本 ISO-25
100
AcDbAlignedDimension
 13
715.0157397890271
 23
478.5957346941761
 33
0.0
 14
725.2057397890292
 24
405.5957346941788
 34
0.0
 50
90.0
100
AcDbRotatedDimension
1001
AcadAnnotative
1000
AnnotativeData
1002
{
1070
     1
1070
     0
1002
}
1001
ACAD
1000
DSTYLE
1002
{
1070
    40
1040
1.0
1070
   279
1070
     0
1070
   289
1070
     3
1070
   174
1070
     0
1070
   175
1070
     0
1070
   172
1070
     1
1070
    41
1040
2.0
1070
    42
1040
0.4997500000000001
1070
    44
1040
0.4997500000000001
1070
   140
1040
2.5
1070
   144
1040
1.0
1070
   147
1040
0.4997500000000001
1070
   178
1070
     3
1002
}
  0
ARC
  5
5FC
330
1F
100
AcDbEntity
  8
1.1L
  6
ByBlock
370
    40
100
AcDbCircle
 10
712.6762856161276
 20
474.0957346941915
 30
0.0
 40
0.5
100
AcDbArc
 50
90.0
 51
180.0
  0
LINE
  5
5FD
330
1F
100
AcDbEntity
  8
1.1L
 48
0.0480000000000037
370
    40
100
AcDbLine
 10
717.8551939618754
 20
468.8957346942026
 30
0.0
 11
717.8551939618754
 21
474.1457346941954
 31
0.0
  0
ARC
  5
5FE
330
1F
100
AcDbEntity
  8
1.1L
  6
ByBlock
 48
0.0480000000000037
370
    40
100
AcDbCircle
 10
717.3551939618754
 20
474.0957346941952
 30
0.0
 40
0.5
100
AcDbArc
 50
0.0
 51
90.0
  0
LINE
  5
5FF
330
1F
100
AcDbEntity
  8
1.1L
 48
0.0480000000000037
370
    40
100
AcDbLine
 10
712.1762856161276
 20
468.8957346941982
 30
0.0
 11
712.1762856161276
 21
474.1457346941918
 31
0.0
  0
LINE
  5
600
330
1F
100
AcDbEntity
  8
1.1L
  6
ByBlock
370
    40
100
AcDbLine
 10
720.7657397890271
 20
474.0957346941761
 30
0.0
 11
717.8551939618754
 21
474.0957346941761
 31
0.0
  0
LINE
  5
601
330
1F
100
AcDbEntity
  8
1.1L
  6
ByBlock
370
    40
100
AcDbLine
 10
712.1762856161276
 20
474.0957346941761
 30
0.0
 11
709.265739789027
 21
474.0957346941761
 31
0.0
  0
DIMENSION
  5
602
102
{ACAD_XDICTIONARY
360
603
102
}
102
{ACAD_REACTORS
330
604
102
}
330
1F
100
AcDbEntity
  8
dim @ 1
  6
ByBlock
100
AcDbDimension
  2
*D13
 10
734.9898118800685
 20
414.9907346941811
 30
0.0
 11
734.9898118800682
 21
410.2932346941813
 31
0.0
 70
   128
 71
     5
 42
9.395000000002255
  3
副本 ISO-25
100
AcDbAlignedDimension
 13
725.2057397890292
 23
405.5957346941788
 33
0.0
 14
729.1157397890255
 24
414.9907346941811
 34
0.0
 50
90.0
100
AcDbRotatedDimension
1001
AcadAnnotative
1000
AnnotativeData
1002
{
1070
     1
1070
     0
1002
}
1001
ACAD
1000
DSTYLE
1002
{
1070
    40
1040
1.0
1070
   279
1070
     0
1070
   289
1070
     3
1070
   174
1070
     0
1070
   175
1070
     0
1070
   172
1070
     1
1070
    41
1040
2.0
1070
    42
1040
0.4997500000000001
1070
    44
1040
0.4997500000000001
1070
   140
1040
2.5
1070
   144
1040
1.0
1070
   147
1040
0.4997500000000001
1070
   178
1070
     3
1002
}
  0
DIMENSION
  5
608
102
{ACAD_XDICTIONARY
360
609
102
}
102
{ACAD_REACTORS
330
60A
102
}
330
1F
100
AcDbEntity
  8
dim @ 1
  6
ByBlock
100
AcDbDimension
  2
*D14
 10
739.5368083270532
 20
459.5907346941815
 30
0.0
 11
739.5368083270532
 21
432.5932346941805
 31
0.0
 70
   128
 71
     5
 42
53.99500000000261
  3
副本 ISO-25
100
AcDbAlignedDimension
 13
725.2057397890292
 23
405.5957346941788
 33
0.0
 14
729.0157397890269
 24
459.5907346941815
 34
0.0
 50
90.0
100
AcDbRotatedDimension
1001
AcadAnnotative
1000
AnnotativeData
1002
{
1070
     1
1070
     0
1002
}
1001
ACAD
1000
DSTYLE
1002
{
1070
    40
1040
1.0
1070
   279
1070
     0
1070
   289
1070
     3
1070
   174
1070
     0
1070
   175
1070
     0
1070
   172
1070
     1
1070
    41
1040
2.0
1070
    42
1040
0.4997500000000001
1070
    44
1040
0.4997500000000001
1070
   140
1040
2.5
1070
   144
1040
1.0
1070
   147
1040
0.4997500000000001
1070
   178
1070
     3
1002
}
  0
DIMENSION
  5
60E
102
{ACAD_XDICTIONARY
360
60F
102
}
102
{ACAD_REACTORS
330
610
102
}
330
1F
100
AcDbEntity
  8
dim @ 1
  6
ByBlock
100
AcDbDimension
  2
*D15
 10
744.705524502655
 20
405.5957346941788
 30
0.0
 11
744.7055245026548
 21
436.5932346941805
 31
0.0
 70
   128
 71
     5
 42
61.99500000000261
  3
副本 ISO-25
100
AcDbAlignedDimension
 13
724.015739789027
 23
467.5907346941815
 33
0.0
 14
725.2057397890292
 24
405.5957346941788
 34
0.0
 50
90.0
100
AcDbRotatedDimension
1001
AcadAnnotative
1000
AnnotativeData
1002
{
1070
     1
1070
     0
1002
}
1001
ACAD
1000
DSTYLE
1002
{
1070
    40
1040
1.0
1070
   279
1070
     0
1070
   289
1070
     3
1070
   174
1070
     0
1070
   175
1070
     0
1070
   172
1070
     1
1070
    41
1040
2.0
1070
    42
1040
0.4997500000000001
1070
    44
1040
0.4997500000000001
1070
   140
1040
2.5
1070
   144
1040
1.0
1070
   147
1040
0.4997500000000001
1070
   178
1070
     3
1002
}
  0
DIMENSION
  5
614
102
{ACAD_XDICTIONARY
360
615
102
}
102
{ACAD_REACTORS
330
616
102
}
330
1F
100
AcDbEntity
  8
dim @ 1
  6
ByBlock
100
AcDbDimension
  2
*D16
 10
751.0123153034602
 20
405.5957346941788
 30
0.0
 11
751.0123153034601
 21
440.0957346941778
 31
0.0
 70
   128
 71
     5
 42
68.99999999999727
  3
副本 ISO-25
100
AcDbAlignedDimension
 13
720.2657397890269
 23
474.5957346941761
 33
0.0
 14
725.2057397890292
 24
405.5957346941788
 34
0.0
 50
90.0
100
AcDbRotatedDimension
1001
AcadAnnotative
1000
AnnotativeData
1002
{
1070
     1
1070
     0
1002
}
1001
ACAD
1000
DSTYLE
1002
{
1070
    40
1040
1.0
1070
   279
1070
     0
1070
   289
1070
     3
1070
   174
1070
     0
1070
   175
1070
     0
1070
   172
1070
     1
1070
    41
1040
2.0
1070
    42
1040
0.4997500000000001
1070
    44
1040
0.4997500000000001
1070
   140
1040
2.5
1070
   144
1040
1.0
1070
   147
1040
0.4997500000000001
1070
   178
1070
     3
1002
}
  0
DIMENSION
  5
61A
102
{ACAD_XDICTIONARY
360
61B
102
}
102
{ACAD_REACTORS
330
61C
102
}
330
1F
100
AcDbEntity
  8
dim @ 1
  6
ByBlock
100
AcDbDimension
  2
*D21
 10
729.1157397890242
 20
396.8988662327524
 30
0.0
 11
715.0157397890255
 21
396.8988662327524
 31
0.0
 70
   160
  1
{\fISOCPEUR|b0|i0|c0|p34;%%C}<>
 71
     5
 42
28.19999999999732
  3
副本 ISO-25
100
AcDbAlignedDimension
 13
700.9157397890269
 23
406.9457346941803
 33
0.0
 14
729.1157397890242
 24
406.9457346941794
 34
0.0
100
AcDbRotatedDimension
1001
AcadAnnotative
1000
AnnotativeData
1002
{
1070
     1
1070
     0
1002
}
1001
ACAD
1000
DSTYLE
1002
{
1070
    40
1040
1.0
1070
   279
1070
     0
1070
   289
1070
     3
1070
   174
1070
     0
1070
   175
1070
     0
1070
   172
1070
     1
1070
   178
1070
     3
1070
   144
1040
1.0
1070
   140
1040
2.5
1070
    41
1040
2.0
1070
    42
1040
0.4997500000000001
1070
    44
1040
0.4997500000000001
1070
   147
1040
0.4997500000000001
1002
}
  0
LINE
  5
620
330
1F
100
AcDbEntity
  8
1L
  6
ByBlock
100
AcDbLine
 10
700.0157397890269
 20
458.5907346941815
 30
0.0
 11
730.0157397890269
 21
458.5907346941805
 31
0.0
  0
LINE
  5
621
330
1F
100
AcDbEntity
  8
1L
  6
ByBlock
100
AcDbLine
 10
700.0157397890269
 20
415.8907346941815
 30
0.0
 11
730.0157397890269
 21
415.8907346941815
 31
0.0
  0
DIMENSION
  5
622
102
{ACAD_XDICTIONARY
360
623
102
}
330
1F
100
AcDbEntity
  8
dim @ 1
  6
ByBlock
100
AcDbDimension
  2
*D18
 10
749.1245584203044
 20
334.5447810481248
 30
0.0
 11
749.1245584203043
 21
346.5447810481248
 31
0.0
 70
   128
  1
{\H1.25x;<>}
 71
     5
 42
23.99999999999909
  3
副本 ISO-25
100
AcDbAlignedDimension
 13
721.241494933607
 23
358.5447810481239
 33
0.0
 14
721.241494933607
 24
334.5447810481248
 34
0.0
 50
90.0
100
AcDbRotatedDimension
1001
AcadAnnotative
1000
AnnotativeData
1002
{
1070
     1
1070
     0
1002
}
1001
ACAD
1000
DSTYLE
1002
{
1070
    40
1040
1.0
1070
   279
1070
     0
1070
   289
1070
     3
1070
   174
1070
     0
1070
   175
1070
     0
1070
   172
1070
     1
1070
   140
1040
2.5
1070
   178
1070
     3
1070
   144
1040
1.0
1070
    41
1040
2.0
1070
    42
1040
0.4997500000000001
1070
    44
1040
0.4997500000000001
1070
   147
1040
0.4997500000000001
1002
}
  0
DIMENSION
  5
627
102
{ACAD_XDICTIONARY
360
628
102
}
102
{ACAD_REACTORS
330
629
102
}
330
1F
100
AcDbEntity
  8
dim @ 1
  6
ByBlock
100
AcDbDimension
  2
*D19
 10
741.8422336061767
 20
341.5447810481236
 30
0.0
 11
739.7469430195461
 21
346.5447810481248
 31
0.0
  1
{\H1.25x;<>}
 71
     5
 42
10.00000000000227
  3
副本 ISO-25
100
AcDbAlignedDimension
 13
717.8962906680744
 23
351.5447810481258
 33
0.0
 14
717.8962906680818
 24
341.5447810481236
 34
0.0
 50
90.0
100
AcDbRotatedDimension
1001
AcadAnnotative
1000
AnnotativeData
1002
{
1070
     1
1070
     0
1002
}
1001
ACAD
1000
DSTYLE
1002
{
1070
    40
1040
1.0
1070
   279
1070
     0
1070
   289
1070
     3
1070
   174
1070
     0
1070
   175
1070
     0
1070
   172
1070
     1
1070
   140
1040
2.5
1070
   178
1070
     3
1070
   144
1040
1.0
1070
    41
1040
2.0
1070
    42
1040
0.4997500000000001
1070
    44
1040
0.4997500000000001
1070
   147
1040
0.4997500000000001
1002
}
  0
ARC
  5
62D
330
1F
100
AcDbEntity
  8
1.1L
  6
ByBlock
370
    40
100
AcDbCircle
 10
715.0568364951777
 20
346.5447810481239
 30
0.0
 40
13.5
100
AcDbArc
 50
297.2660444507241
 51
302.7339555493246
  0
ARC
  5
62E
330
1F
100
AcDbEntity
  8
1.1L
  6
ByBlock
370
    40
100
AcDbCircle
 10
715.0568364951777
 20
346.5447810481239
 30
0.0
 40
13.5
100
AcDbArc
 50
357.2660444507533
 51
2.733955549246669
  0
ARC
  5
62F
330
1F
100
AcDbEntity
  8
1.1L
  6
ByBlock
370
    40
100
AcDbCircle
 10
715.0568364951777
 20
346.5447810481239
 30
0.0
 40
13.5
100
AcDbArc
 50
57.26604445067525
 51
62.73395554927581
  0
ARC
  5
630
330
1F
100
AcDbEntity
  8
1.1L
  6
ByBlock
370
    40
100
AcDbCircle
 10
715.0568364951777
 20
346.5447810481239
 30
0.0
 40
13.5
100
AcDbArc
 50
117.2660444507242
 51
122.7339555493247
  0
ARC
  5
631
330
1F
100
AcDbEntity
  8
1.1L
  6
ByBlock
370
    40
100
AcDbCircle
 10
715.0568364951777
 20
346.5447810481239
 30
0.0
 40
13.5
100
AcDbArc
 50
177.2660444507533
 51
182.7339555492466
  0
ARC
  5
632
330
1F
100
AcDbEntity
  8
1.1L
  6
ByBlock
370
    40
100
AcDbCircle
 10
715.0568364951777
 20
346.5447810481239
 30
0.0
 40
13.5
100
AcDbArc
 50
237.2660444506752
 51
242.7339555492758
  0
LWPOLYLINE
  5
633
330
1F
100
AcDbEntity
  8
1.1L
  6
ByBlock
370
    40
100
AcDbPolyline
 90
        2
 70
     0
 43
0.0
 10
707.7568608689779
 20
357.9008523695313
 10
701.5722024305487
 20
347.1887097267165
  0
LWPOLYLINE
  5
634
330
1F
100
AcDbEntity
  8
1.1L
  6
ByBlock
370
    40
100
AcDbPolyline
 90
        2
 70
     0
 43
0.0
 10
701.5722024305487
 20
345.9008523695313
 10
707.7568608689779
 20
335.1887097267165
  0
LWPOLYLINE
  5
635
330
1F
100
AcDbEntity
  8
1.1L
  6
ByBlock
370
    40
100
AcDbPolyline
 90
        2
 70
     0
 43
0.0
 10
708.8721780567483
 20
334.5447810481239
 10
721.241494933607
 20
334.5447810481239
  0
LWPOLYLINE
  5
636
330
1F
100
AcDbEntity
  8
1.1L
  6
ByBlock
370
    40
100
AcDbPolyline
 90
        2
 70
     0
 43
0.0
 10
722.3568121213775
 20
335.1887097267165
 10
728.5414705598068
 20
345.9008523695313
  0
LWPOLYLINE
  5
637
330
1F
100
AcDbEntity
  8
1.1L
  6
ByBlock
370
    40
100
AcDbPolyline
 90
        2
 70
     0
 43
0.0
 10
728.5414705598068
 20
347.1887097267165
 10
722.3568121213775
 20
357.9008523695313
  0
LWPOLYLINE
  5
638
330
1F
100
AcDbEntity
  8
1.1L
  6
ByBlock
370
    40
100
AcDbPolyline
 90
        2
 70
     0
 43
0.0
 10
721.241494933607
 20
358.5447810481239
 10
708.8721780567483
 20
358.5447810481239
  0
DIMENSION
  5
639
102
{ACAD_XDICTIONARY
360
63A
102
}
330
1F
100
AcDbEntity
  8
dim @ 1
  6
ByBlock
 62
     0
100
AcDbDimension
  2
*D20
 10
730.0157397890342
 20
391.1339552368465
 30
0.0
 11
715.0157397890416
 21
391.1339552368465
 31
0.0
 70
   128
  1
M<>*1.5
 71
     5
 42
29.99999999998545
  3
副本 ISO-25
100
AcDbAlignedDimension
 13
700.0157397890489
 23
415.8907346941624
 33
0.0
 14
730.0157397890342
 24
415.8907346941815
 34
0.0
100
AcDbRotatedDimension
1001
AcadAnnotative
1000
AnnotativeData
1002
{
1070
     1
1070
     0
1002
}
1001
ACAD
1000
DSTYLE
1002
{
1070
    40
1040
1.0
1070
   279
1070
     0
1070
   289
1070
     3
1070
   174
1070
     0
1070
   175
1070
     0
1070
   172
1070
     1
1070
   178
1070
     3
1070
   144
1040
1.0
1070
    41
1040
2.0
1070
    42
1040
0.4997500000000001
1070
    44
1040
0.4997500000000001
1070
   140
1040
2.5
1070
   147
1040
0.4997500000000001
1002
}
  0
MTEXT
  5
63E
330
1F
100
AcDbEntity
  8
7L
100
AcDbMText
 10
689.1529297793185
 20
546.9778671637083
 30
0.0
 40
5.599999999999998
 41
43.8784744752047
 71
     2
 72
     5
  1
CSP-30BLP
 73
     1
 44
1.0
1001
ACAD
1000
MTEXTBEGIN
1070
    73
1070
     1
1070
    44
1040
1.0
1070
    74
1070
     0
1000
MTEXTEND
  0
MTEXT
  5
63F
330
1F
100
AcDbEntity
  8
7L
 62
   240
100
AcDbMText
 10
647.3234637516671
 20
561.4575331971798
 30
0.0
 40
6.959908799999997
 41
59.92249479840018
 71
     1
 72
     5
  1
{\fTimes New Roman|b1|i1|c0|p18;\C1;Clamptek}
 73
     1
 44
1.0
1001
ACAD
1000
MTEXTBEGIN
1070
    73
1070
     1
1070
    44
1040
1.0
1070
    74
1070
     0
1000
MTEXTEND
  0
MTEXT
  5
640
330
1F
100
AcDbEntity
  8
7L
100
AcDbMText
 10
690.3249143371485
 20
565.2158488794737
 30
0.0
 40
1.979707391999992
 41
2.125425301622161
 71
     1
 72
     5
  1
{\fKaiTi_GB2312|b0|i0|c134|p49;\C1;R}
 73
     1
 44
1.0
1001
ACAD
1000
MTEXTBEGIN
1070
    73
1070
     1
1070
    44
1040
1.0
1070
    74
1070
     0
1000
MTEXTEND
  0
CIRCLE
  5
641
330
1F
100
AcDbEntity
  8
7L
 62
     1
100
AcDbCircle
 10
690.7514527489747
 20
564.1890718556749
 30
0.0
 40
1.236327266304023
  0
MTEXT
  5
642
330
1F
100
AcDbEntity
  8
0
100
AcDbMText
 10
620.6084174233892
 20
546.5979918896842
 30
0.0
 40
6.390656999999997
 41
19.38925333799996
 71
     1
 72
     5
  1
{\H0.9412x;PART}
  7
ROMANS
 73
     1
 44
1.0
1001
ACAD
1000
MTEXTBEGIN
1070
    73
1070
     1
1070
    44
1040
1.0
1070
    74
1070
     0
1000
MTEXTEND
  0
LINE
  5
643
330
1F
100
AcDbEntity
  8
5L
 48
0.2
100
AcDbLine
 10
631.0607067740257
 20
554.1069531600776
 30
0.0
 11
635.6594999064963
 21
554.1069531600776
 31
0.0
  0
LINE
  5
644
330
1F
100
AcDbEntity
  8
5L
 48
0.5
370
     0
100
AcDbLine
 10
639.2790069720267
 20
560.9901410056407
 30
0.0
 11
637.7494096730132
 21
560.9901410056407
 31
0.0
  0
LINE
  5
645
330
1F
100
AcDbEntity
  8
5L
 62
     1
 48
0.5
370
     0
100
AcDbLine
 10
637.7494096730132
 20
558.1858792907811
 30
0.0
 11
639.2790069720267
 21
558.1858792907811
 31
0.0
  0
HATCH
  5
646
330
1F
100
AcDbEntity
  8
5L
 48
0.5
100
AcDbHatch
 10
0.0
 20
0.0
 30
0.0
210
0.0
220
0.0
230
1.0
  2
SOLID
 70
     1
 71
     0
 91
        1
 92
        7
 72
     0
 73
     1
 93
        4
 10
639.2790069720267
 20
560.9901410056397
 10
637.7494096730097
 20
560.9901410056397
 10
637.7494096730097
 20
558.185879290784
 10
639.2790069720303
 20
558.185879290784
 97
        0
 75
     0
 76
     1
 47
0.1695963248566213
 98
        1
 10
638.8061502419386
 20
558.9867587079212
  0
ARC
  5
647
330
1F
100
AcDbEntity
  8
5L
 62
     1
 48
0.5
100
AcDbCircle
 10
635.6594999064963
 20
561.5000067719781
 30
0.0
 40
7.393053611899605
100
AcDbArc
 50
269.2799010938334
 51
329.9999999999441
  0
ARC
  5
648
330
1F
100
AcDbEntity
  8
5L
 62
     1
 48
0.5
370
     0
100
AcDbCircle
 10
635.6594999064963
 20
561.5000067719781
 30
0.0
 40
7.393053611899959
100
AcDbArc
 50
269.2799010939376
 51
330.0000053566439
  0
LINE
  5
649
330
1F
100
AcDbEntity
  8
5L
 48
0.5
100
AcDbLine
 10
641.7727509837658
 20
560.9901410056407
 30
0.0
 11
635.6635582743456
 21
560.9901410056407
 31
0.0
  0
LINE
  5
64A
330
1F
100
AcDbEntity
  8
5L
 62
     1
 48
0.5
100
AcDbLine
 10
641.8412937928569
 20
558.1858792907811
 30
0.0
 11
635.6635582743456
 21
558.1858792907803
 31
0.0
  0
LINE
  5
64B
330
1F
100
AcDbEntity
  8
5L
 62
     1
 48
0.5
370
     0
100
AcDbLine
 10
641.8412937928569
 20
558.1858792907811
 30
0.0
 11
635.6635582743456
 21
558.1858792907811
 31
0.0
  0
LINE
  5
64C
330
1F
100
AcDbEntity
  8
5L
 62
     1
 48
0.5
370
     0
100
AcDbLine
 10
641.8412937928569
 20
558.1858792907811
 30
0.0
 11
635.6635582743456
 21
558.1858792907811
 31
0.0
  0
HATCH
  5
64D
330
1F
100
AcDbEntity
  8
5L
 48
0.5
100
AcDbHatch
 10
0.0
 20
0.0
 30
0.0
210
0.0
220
0.0
230
1.0
  2
SOLID
 70
     1
 71
     0
 91
        1
 92
        7
 72
     0
 73
     1
 93
        4
 10
641.7727509837658
 20
561.7549396551481
 10
635.6635582743456
 20
561.7549396551481
 10
635.6635582743456
 20
560.9901410056397
 10
641.7727509837658
 20
560.9901410056397
 97
        0
 75
     0
 76
     1
 47
0.0708786354052686
 98
        1
 10
638.5726501026709
 20
561.375723221108
  0
LINE
  5
64E
330
1F
100
AcDbEntity
  8
5L
 48
0.5
100
AcDbLine
 10
637.7494096730132
 20
560.9901410056407
 30
0.0
 11
637.7494096730132
 21
558.1858792907811
 31
0.0
  0
LINE
  5
64F
330
1F
100
AcDbEntity
  8
5L
 48
0.5
370
     0
100
AcDbLine
 10
637.7494096730132
 20
560.9901410056407
 30
0.0
 11
637.7494096730132
 21
558.1858792907811
 31
0.0
  0
LINE
  5
650
330
1F
100
AcDbEntity
  8
5L
 62
     1
 48
0.5
100
AcDbLine
 10
637.4823238205626
 20
557.9309464076111
 30
0.0
 11
637.4823238205626
 21
557.5485470828587
 31
0.0
  0
ARC
  5
651
330
1F
100
AcDbEntity
  8
5L
 62
     1
 48
0.5
370
     0
100
AcDbCircle
 10
637.5165952251062
 20
556.0189497838442
 30
0.0
 40
0.1274664415844986
100
AcDbArc
 50
330.0001553410225
 51
90.0
  0
ARC
  5
652
330
1F
100
AcDbEntity
  8
5L
 62
     1
 48
0.5
370
     0
100
AcDbCircle
 10
637.5165952251062
 20
556.0189497838442
 30
0.0
 40
0.1274664415844986
100
AcDbArc
 50
330.0001553410225
 51
90.0
  0
ARC
  5
653
330
1F
100
AcDbEntity
  8
5L
 62
     1
 48
0.5
100
AcDbCircle
 10
637.5165952251062
 20
556.0189497838442
 30
0.0
 40
0.1274664415844761
100
AcDbArc
 50
329.9999999999792
 51
90.0
  0
LINE
  5
654
330
1F
100
AcDbEntity
  8
5L
 48
0.5
370
     0
100
AcDbLine
 10
635.6635582743456
 20
561.7549396551472
 30
0.0
 11
635.6635582743456
 21
560.9901410056407
 31
0.0
  0
LINE
  5
655
330
1F
100
AcDbEntity
  8
5L
 62
     1
 48
0.5
370
     0
100
AcDbLine
 10
635.6635582743456
 20
558.1858792907803
 30
0.0
 11
635.6635582743456
 21
557.6760135244438
 31
0.0
  0
LINE
  5
656
330
1F
100
AcDbEntity
  8
5L
 62
     1
 48
0.5
370
     0
100
AcDbLine
 10
635.6635582743456
 20
558.1858792907811
 30
0.0
 11
635.6635582743456
 21
557.6760135244438
 31
0.0
  0
LINE
  5
657
330
1F
100
AcDbEntity
  8
5L
 48
0.5
100
AcDbLine
 10
633.7770549388932
 20
556.1464162254293
 30
0.0
 11
632.7573234062165
 21
556.1464162254293
 31
0.0
  0
LINE
  5
658
330
1F
100
AcDbEntity
  8
5L
 48
0.5
370
     0
100
AcDbLine
 10
634.1339609753322
 20
556.1464162254293
 30
0.0
 11
632.7573234062128
 21
556.1464162254293
 31
0.0
  0
LINE
  5
659
330
1F
100
AcDbEntity
  8
5L
 48
0.5
370
     0
100
AcDbLine
 10
634.1339609753322
 20
556.1464162254293
 30
0.0
 11
632.7573234062165
 21
556.1464162254293
 31
0.0
  0
ARC
  5
65A
330
1F
100
AcDbEntity
  8
5L
 48
0.5
370
     0
100
AcDbCircle
 10
634.1339609753322
 20
557.6760135244438
 30
0.0
 40
1.52959729901371
100
AcDbArc
 50
270.0
 51
0.0
  0
ARC
  5
65B
330
1F
100
AcDbEntity
  8
5L
 48
0.5
370
     0
100
AcDbCircle
 10
634.1339609753322
 20
557.6760135244438
 30
0.0
 40
1.529597299013764
100
AcDbArc
 50
270.0
 51
0.0
  0
ARC
  5
65C
330
1F
100
AcDbEntity
  8
5L
 48
0.5
100
AcDbCircle
 10
632.7573234062165
 20
557.6760135244438
 30
0.0
 40
1.52959729901371
100
AcDbArc
 50
180.0
 51
270.0
  0
ARC
  5
65D
330
1F
100
AcDbEntity
  8
5L
 48
0.5
370
     0
100
AcDbCircle
 10
632.7573234062165
 20
557.6760135244438
 30
0.0
 40
1.529597299013625
100
AcDbArc
 50
180.0
 51
270.0
  0
LINE
  5
65E
330
1F
100
AcDbEntity
  8
5L
 48
0.5
100
AcDbLine
 10
639.2790069720267
 20
560.9901410056407
 30
0.0
 11
639.2790069720267
 21
558.1858792907811
 31
0.0
  0
LINE
  5
65F
330
1F
100
AcDbEntity
  8
5L
 48
0.5
370
     0
100
AcDbLine
 10
639.2790069720267
 20
558.1858792907811
 30
0.0
 11
639.2790069720267
 21
560.9901410056407
 31
0.0
  0
LINE
  5
660
330
1F
100
AcDbEntity
  8
5L
 48
0.5
370
     0
100
AcDbLine
 10
639.2790069720267
 20
558.1858792907811
 30
0.0
 11
639.2790069720267
 21
560.9901410056407
 31
0.0
  0
LINE
  5
661
330
1F
100
AcDbEntity
  8
5L
 48
0.5
100
AcDbLine
 10
639.2790069720267
 20
560.9901410056407
 30
0.0
 11
639.2790069720267
 21
558.1858792907811
 31
0.0
  0
ARC
  5
662
330
1F
100
AcDbEntity
  8
5L
 48
0.5
370
     0
100
AcDbCircle
 10
632.7573234062165
 20
557.6760135244438
 30
0.0
 40
1.529597299013625
100
AcDbArc
 50
180.0
 51
270.0
  0
ARC
  5
663
330
1F
100
AcDbEntity
  8
5L
 48
0.5
100
AcDbCircle
 10
632.7573234062165
 20
557.6760135244438
 30
0.0
 40
1.52959729901371
100
AcDbArc
 50
180.0
 51
270.0
  0
ARC
  5
664
330
1F
100
AcDbEntity
  8
5L
 48
0.5
370
     0
100
AcDbCircle
 10
634.1339609753322
 20
557.6760135244438
 30
0.0
 40
1.529597299013764
100
AcDbArc
 50
270.0
 51
0.0
  0
ARC
  5
665
330
1F
100
AcDbEntity
  8
5L
 48
0.5
370
     0
100
AcDbCircle
 10
634.1339609753322
 20
557.6760135244438
 30
0.0
 40
1.52959729901371
100
AcDbArc
 50
270.0
 51
0.0
  0
LINE
  5
666
330
1F
100
AcDbEntity
  8
5L
 48
0.5
370
     0
100
AcDbLine
 10
634.1339609753322
 20
556.1464162254293
 30
0.0
 11
632.7573234062165
 21
556.1464162254293
 31
0.0
  0
LINE
  5
667
330
1F
100
AcDbEntity
  8
5L
 48
0.5
370
     0
100
AcDbLine
 10
634.1339609753322
 20
556.1464162254293
 30
0.0
 11
632.7573234062128
 21
556.1464162254293
 31
0.0
  0
LINE
  5
668
330
1F
100
AcDbEntity
  8
5L
 48
0.5
100
AcDbLine
 10
633.7770549388932
 20
556.1464162254293
 30
0.0
 11
632.7573234062165
 21
556.1464162254293
 31
0.0
  0
LINE
  5
669
330
1F
100
AcDbEntity
  8
5L
 62
     1
 48
0.5
370
     0
100
AcDbLine
 10
635.6635582743456
 20
558.1858792907811
 30
0.0
 11
635.6635582743456
 21
557.6760135244438
 31
0.0
  0
LINE
  5
66A
330
1F
100
AcDbEntity
  8
5L
 62
     1
 48
0.5
370
     0
100
AcDbLine
 10
635.6635582743456
 20
558.1858792907803
 30
0.0
 11
635.6635582743456
 21
557.6760135244438
 31
0.0
  0
LINE
  5
66B
330
1F
100
AcDbEntity
  8
5L
 48
0.5
370
     0
100
AcDbLine
 10
635.6635582743456
 20
561.7549396551472
 30
0.0
 11
635.6635582743456
 21
560.9901410056407
 31
0.0
  0
ARC
  5
66C
330
1F
100
AcDbEntity
  8
5L
 62
     1
 48
0.5
100
AcDbCircle
 10
637.5165952251062
 20
556.0189497838442
 30
0.0
 40
0.1274664415844761
100
AcDbArc
 50
329.9999999999792
 51
90.0
  0
ARC
  5
66D
330
1F
100
AcDbEntity
  8
5L
 62
     1
 48
0.5
370
     0
100
AcDbCircle
 10
637.5165952251062
 20
556.0189497838442
 30
0.0
 40
0.1274664415844986
100
AcDbArc
 50
330.0001553410225
 51
90.0
  0
ARC
  5
66E
330
1F
100
AcDbEntity
  8
5L
 62
     1
 48
0.5
370
     0
100
AcDbCircle
 10
637.5165952251062
 20
556.0189497838442
 30
0.0
 40
0.1274664415844986
100
AcDbArc
 50
330.0001553410225
 51
90.0
  0
LINE
  5
66F
330
1F
100
AcDbEntity
  8
5L
 62
     1
 48
0.5
100
AcDbLine
 10
637.4823238205626
 20
557.9309464076111
 30
0.0
 11
637.4823238205626
 21
557.5485470828587
 31
0.0
  0
LINE
  5
670
330
1F
100
AcDbEntity
  8
5L
 48
0.5
370
     0
100
AcDbLine
 10
637.7494096730132
 20
560.9901410056407
 30
0.0
 11
637.7494096730132
 21
558.1858792907811
 31
0.0
  0
LINE
  5
671
330
1F
100
AcDbEntity
  8
5L
 48
0.5
100
AcDbLine
 10
637.7494096730132
 20
560.9901410056407
 30
0.0
 11
637.7494096730132
 21
558.1858792907811
 31
0.0
  0
HATCH
  5
672
330
1F
100
AcDbEntity
  8
5L
 48
0.5
100
AcDbHatch
 10
0.0
 20
0.0
 30
0.0
210
0.0
220
0.0
230
1.0
  2
SOLID
 70
     1
 71
     0
 91
        1
 92
        7
 72
     0
 73
     1
 93
        4
 10
641.7727509837658
 20
561.7549396551481
 10
635.6635582743456
 20
561.7549396551481
 10
635.6635582743456
 20
560.9901410056397
 10
641.7727509837658
 20
560.9901410056397
 97
        0
 75
     0
 76
     1
 47
0.0708786354052686
 98
        1
 10
638.5726501026709
 20
561.375723221108
  0
LINE
  5
673
330
1F
100
AcDbEntity
  8
5L
 62
     1
 48
0.5
370
     0
100
AcDbLine
 10
641.8412937928569
 20
558.1858792907811
 30
0.0
 11
635.6635582743456
 21
558.1858792907811
 31
0.0
  0
LINE
  5
674
330
1F
100
AcDbEntity
  8
5L
 62
     1
 48
0.5
370
     0
100
AcDbLine
 10
641.8412937928569
 20
558.1858792907811
 30
0.0
 11
635.6635582743456
 21
558.1858792907811
 31
0.0
  0
LINE
  5
675
330
1F
100
AcDbEntity
  8
5L
 62
     1
 48
0.5
100
AcDbLine
 10
641.8412937928569
 20
558.1858792907811
 30
0.0
 11
635.6635582743456
 21
558.1858792907803
 31
0.0
  0
LINE
  5
676
330
1F
100
AcDbEntity
  8
5L
 48
0.5
100
AcDbLine
 10
641.7727509837658
 20
560.9901410056407
 30
0.0
 11
635.6635582743456
 21
560.9901410056407
 31
0.0
  0
ARC
  5
677
330
1F
100
AcDbEntity
  8
5L
 62
     1
 48
0.5
370
     0
100
AcDbCircle
 10
635.6594999064963
 20
561.5000067719781
 30
0.0
 40
7.393053611899959
100
AcDbArc
 50
269.2799010939376
 51
330.0000053566439
  0
ARC
  5
678
330
1F
100
AcDbEntity
  8
5L
 62
     1
 48
0.5
100
AcDbCircle
 10
635.6594999064963
 20
561.5000067719781
 30
0.0
 40
7.393053611899605
100
AcDbArc
 50
269.2799010938334
 51
329.9999999999441
  0
HATCH
  5
679
330
1F
100
AcDbEntity
  8
5L
 48
0.5
100
AcDbHatch
 10
0.0
 20
0.0
 30
0.0
210
0.0
220
0.0
230
1.0
  2
SOLID
 70
     1
 71
     0
 91
        1
 92
        7
 72
     0
 73
     1
 93
        4
 10
639.2790069720267
 20
560.9901410056397
 10
637.7494096730097
 20
560.9901410056397
 10
637.7494096730097
 20
558.185879290784
 10
639.2790069720303
 20
558.185879290784
 97
        0
 75
     0
 76
     1
 47
0.1695963248566213
 98
        1
 10
638.8061502419386
 20
558.9867587079212
  0
LINE
  5
67A
330
1F
100
AcDbEntity
  8
5L
 62
     1
 48
0.5
370
     0
100
AcDbLine
 10
637.7494096730132
 20
558.1858792907811
 30
0.0
 11
639.2790069720267
 21
558.1858792907811
 31
0.0
  0
LINE
  5
67B
330
1F
100
AcDbEntity
  8
5L
 48
0.5
370
     0
100
AcDbLine
 10
639.2790069720267
 20
560.9901410056407
 30
0.0
 11
637.7494096730132
 21
560.9901410056407
 31
0.0
  0
LINE
  5
67C
330
1F
100
AcDbEntity
  8
5L
 48
0.5
100
AcDbLine
 10
631.2277261072067
 20
565.323416134696
 30
0.0
 11
631.2277261072067
 21
557.676013524441
 31
0.0
  0
LINE
  5
67D
330
1F
100
AcDbEntity
  8
5L
 48
0.5
370
     0
100
AcDbLine
 10
631.2277261072067
 20
557.676013524441
 30
0.0
 11
631.2277261072067
 21
565.323416134696
 31
0.0
  0
LINE
  5
67E
330
1F
100
AcDbEntity
  8
5L
 48
0.5
370
     0
100
AcDbLine
 10
631.2277261072067
 20
557.676013524441
 30
0.0
 11
631.2277261072067
 21
565.323416134696
 31
0.0
  0
LINE
  5
67F
330
1F
100
AcDbEntity
  8
5L
 48
0.5
100
AcDbLine
 10
631.2277261072067
 20
565.323416134696
 30
0.0
 11
631.2277261072067
 21
557.676013524441
 31
0.0
  0
HATCH
  5
680
330
1F
100
AcDbEntity
  8
5L
  6
Continuous
 48
0.5
100
AcDbHatch
 10
0.0
 20
0.0
 30
0.0
210
0.0
220
0.0
230
1.0
  2
SOLID
 70
     1
 71
     0
 91
        1
 92
        5
 93
       18
 72
     2
 10
632.7573234062165
 20
565.323416134696
 40
1.529597299013825
 50
180.0
 51
269.9999999999653
 73
     0
 72
     1
 10
632.7573234062165
 20
566.8530134337112
 11
634.1339609753284
 21
566.8530134337112
 72
     2
 10
634.1339609753322
 20
565.323416134696
 40
1.529597299013525
 50
269.9999999999653
 51
360.0000000000347
 73
     0
 72
     1
 10
635.6635582743456
 20
565.323416134696
 11
641.5178181005958
 21
565.3234161346978
 72
     2
 10
641.5178181005958
 20
565.5783490178662
 40
0.2549328831689688
 50
270.0
 51
394.8441938451077
 73
     1
 72
     2
 10
635.6594999064927
 20
561.5000067719781
 40
7.393053611899884
 50
34.84419384513769
 51
90.72009890606596
 73
     1
 72
     1
 10
635.5665857387994
 20
568.8924764990648
 11
630.9677926063141
 21
568.8924764990648
 72
     2
 10
631.0607067740257
 20
561.5000067719781
 40
7.393053611899598
 50
90.72009890615943
 51
270.0
 73
     1
 72
     1
 10
631.0607067740257
 20
554.1069531600793
 11
635.3230865406239
 21
554.1069531600793
 72
     3
 10
635.323086540664
 20
561.5000067719781
 11
19.37489912084032
 21
0.0
 40
0.3815789473684212
 50
270.0
 51
271.8865730317933
 73
     1
 72
     2
 10
635.6594999064927
 20
561.5000067719781
 40
7.393053611899959
 50
269.2799010938837
 51
330.0000053565856
 73
     1
 72
     2
 10
641.8412937928569
 20
557.9309464076128
 40
0.2549328831689968
 50
330.0001553408997
 51
450.0
 73
     1
 72
     1
 10
641.8412937928569
 20
558.185879290784
 11
635.6635582743456
 21
558.1858792907849
 72
     1
 10
635.6635582743456
 20
558.185879290784
 11
635.6635582743456
 21
557.6760135244454
 72
     2
 10
634.1339609753322
 20
557.6760135244428
 40
1.52959729901371
 50
360.0
 51
450.0
 73
     0
 72
     1
 10
634.1339609753322
 20
556.1464162254293
 11
632.75732340622
 21
556.1464162254293
 72
     2
 10
632.7573234062165
 20
557.6760135244428
 40
1.529597299013625
 50
90.0
 51
179.9999999999913
 73
     0
 72
     1
 10
631.2277261072031
 20
557.6760135244428
 11
631.2277261072031
 21
565.323416134697
 97
        0
 75
     0
 76
     1
 47
0.1695963248566213
 98
        1
 10
628.5872123378593
 20
563.3103275871961
  0
ARC
  5
681
330
1F
100
AcDbEntity
  8
5L
 48
0.5
100
AcDbCircle
 10
631.0607067740292
 20
561.5000067719781
 30
0.0
 40
7.393053611899605
100
AcDbArc
 50
90.7200989061666
 51
270.0
  0
ARC
  5
682
330
1F
100
AcDbEntity
  8
5L
 48
0.5
370
     0
100
AcDbCircle
 10
631.0607067740257
 20
561.5000067719781
 30
0.0
 40
7.393053611899577
100
AcDbArc
 50
90.7200989061666
 51
270.0
  0
ARC
  5
683
330
1F
100
AcDbEntity
  8
5L
 48
0.5
370
     0
100
AcDbCircle
 10
631.0607067740257
 20
561.5000067719781
 30
0.0
 40
7.393053611899598
100
AcDbArc
 50
90.7200989061666
 51
270.0
  0
ARC
  5
684
330
1F
100
AcDbEntity
  8
5L
 48
0.5
370
     0
100
AcDbCircle
 10
631.0607067740257
 20
561.5000067719781
 30
0.0
 40
7.393053611899598
100
AcDbArc
 50
90.7200989061666
 51
270.0
  0
ARC
  5
685
330
1F
100
AcDbEntity
  8
5L
 48
0.5
370
     0
100
AcDbCircle
 10
631.0607067740257
 20
561.5000067719781
 30
0.0
 40
7.393053611899577
100
AcDbArc
 50
90.7200989061666
 51
270.0
  0
ARC
  5
686
330
1F
100
AcDbEntity
  8
5L
 48
0.5
100
AcDbCircle
 10
631.0607067740292
 20
561.5000067719781
 30
0.0
 40
7.393053611899605
100
AcDbArc
 50
90.7200989061666
 51
270.0
  0
MTEXT
  5
687
330
1F
100
AcDbEntity
  8
0
100
AcDbMText
 10
641.1273149126153
 20
546.7002424016843
 30
0.0
 40
6.014735999999995
 41
30.86687331
 71
     1
 72
     5
  1
NUMBER:
  7
ROMANS
 73
     1
 44
1.0
1001
ACAD
1000
MTEXTBEGIN
1070
    73
1070
     1
1070
    44
1040
1.0
1070
    74
1070
     0
1000
MTEXTEND
  0
LINE
  5
688
330
1F
100
AcDbEntity
  8
1.1L
  6
ByBlock
100
AcDbLine
 10
610.0157397890271
 20
582.3924093000547
 30
0.0
 11
820.0157397890269
 21
582.3924093000547
 31
0.0
  0
LINE
  5
689
330
1F
100
AcDbEntity
  8
1.1L
  6
ByBlock
100
AcDbLine
 10
820.0157397890269
 20
582.3924093000547
 30
0.0
 11
820.0157397890269
 21
285.3924093000549
 31
0.0
  0
LINE
  5
68A
330
1F
100
AcDbEntity
  8
1.1L
  6
ByBlock
100
AcDbLine
 10
820.0157397890269
 20
285.3924093000549
 30
0.0
 11
610.0157397890271
 21
285.3924093000549
 31
0.0
  0
LINE
  5
68B
330
1F
100
AcDbEntity
  8
1.1L
  6
ByBlock
100
AcDbLine
 10
610.0157397890271
 20
285.3924093000549
 30
0.0
 11
610.0157397890271
 21
582.3924093000547
 31
0.0
  0
ENDSEC
  0
SECTION
  2
OBJECTS
  0
DICTIONARY
  5
C
330
0
100
AcDbDictionary
281
     1
  3
ACAD_CIP_PREVIOUS_PRODUCT_INFO
350
1A5
  3
ACAD_COLOR
350
73
  3
ACAD_DETAILVIEWSTYLE
350
1AB
  3
ACAD_GROUP
350
D
  3
ACAD_LAYOUT
350
1A
  3
ACAD_MATERIAL
350
72
  3
ACAD_MLEADERSTYLE
350
D7
  3
ACAD_MLINESTYLE
350
17
  3
ACAD_PLOTSETTINGS
350
19
  3
ACAD_PLOTSTYLENAME
350
E
  3
ACAD_SCALELIST
350
B6
  3
ACAD_SECTIONVIEWSTYLE
350
1A8
  3
ACAD_TABLESTYLE
350
86
  3
ACAD_VISUALSTYLE
350
99
  3
ACDB_RECOMPOSE_DATA
350
832
  3
AcDbVariableDictionary
350
66
  3
DWGPROPS
350
833
  3
lxx_dict
350
1D2
  0
DICTIONARY
  5
18E
330
2
100
AcDbDictionary
280
     1
281
     1
  3
ACAD_LAYERSTATES
360
18F
  0
DICTIONARY
  5
E6
330
10
100
AcDbDictionary
280
     1
281
     1
  0
DICTIONARY
  5
250
330
24F
100
AcDbDictionary
280
     1
281
     1
  0
DICTIONARY
  5
252
330
251
100
AcDbDictionary
280
     1
281
     1
  0
DICTIONARY
  5
254
330
253
100
AcDbDictionary
280
     1
281
     1
  0
DICTIONARY
  5
256
330
255
100
AcDbDictionary
280
     1
281
     1
  0
DICTIONARY
  5
830
330
82F
100
AcDbDictionary
280
     1
281
     1
  3
ASDK_XREC_ANNO_SCALE_INFO
360
831
  0
DICTIONARY
  5
15D
330
1F
100
AcDbDictionary
280
     1
281
     1
  0
DICTIONARY
  5
480
330
47F
100
AcDbDictionary
280
     1
281
     1
  3
AcDbContextDataManager
360
481
  0
DICTIONARY
  5
485
330
484
100
AcDbDictionary
280
     1
281
     1
  3
AcDbContextDataManager
360
486
  0
DICTIONARY
  5
48A
330
489
100
AcDbDictionary
280
     1
281
     1
  3
AcDbContextDataManager
360
48B
  0
DICTIONARY
  5
48F
330
48E
100
AcDbDictionary
280
     1
281
     1
  3
AcDbContextDataManager
360
490
  0
DICTIONARY
  5
494
330
493
100
AcDbDictionary
280
     1
281
     1
  3
AcDbContextDataManager
360
495
  0
DICTIONARY
  5
499
330
498
100
AcDbDictionary
280
     1
281
     1
  3
AcDbContextDataManager
360
49A
  0
DICTIONARY
  5
49E
330
49D
100
AcDbDictionary
280
     1
281
     1
  3
AcDbContextDataManager
360
49F
  0
DICTIONARY
  5
4A3
330
4A2
100
AcDbDictionary
280
     1
281
     1
  3
AcDbContextDataManager
360
4A4
  0
DICTIONARY
  5
4A8
330
4A7
100
AcDbDictionary
280
     1
281
     1
  3
AcDbContextDataManager
360
4A9
  0
DICTIONARY
  5
4AD
330
4AC
100
AcDbDictionary
280
     1
281
     1
  3
AcDbContextDataManager
360
4AE
  0
DICTIONARY
  5
4B2
330
4B1
100
AcDbDictionary
280
     1
281
     1
  3
AcDbContextDataManager
360
4B3
  0
DICTIONARY
  5
4B7
330
4B6
100
AcDbDictionary
280
     1
281
     1
  3
AcDbContextDataManager
360
4B8
  0
DICTIONARY
  5
4BC
330
4BB
100
AcDbDictionary
280
     1
281
     1
  3
AcDbContextDataManager
360
4BD
  0
DICTIONARY
  5
4C1
330
4C0
100
AcDbDictionary
280
     1
281
     1
  3
AcDbContextDataManager
360
4C2
  0
DICTIONARY
  5
4C6
330
4C5
100
AcDbDictionary
280
     1
281
     1
  3
AcDbContextDataManager
360
4C7
  0
DICTIONARY
  5
4CB
330
4CA
100
AcDbDictionary
280
     1
281
     1
  3
AcDbContextDataManager
360
4CC
  0
DICTIONARY
  5
4D0
330
4CF
100
AcDbDictionary
280
     1
281
     1
  3
AcDbContextDataManager
360
4D1
  0
DICTIONARY
  5
4D5
330
4D4
100
AcDbDictionary
280
     1
281
     1
  3
AcDbContextDataManager
360
4D6
  0
DICTIONARY
  5
4DA
330
4D9
100
AcDbDictionary
280
     1
281
     1
  3
AcDbContextDataManager
360
4DB
  0
DICTIONARY
  5
4DF
330
4DE
100
AcDbDictionary
280
     1
281
     1
  3
AcDbContextDataManager
360
4E0
  0
DICTIONARY
  5
4E4
330
4E3
100
AcDbDictionary
280
     1
281
     1
  3
AcDbContextDataManager
360
4E5
  0
DICTIONARY
  5
4E9
330
4E8
100
AcDbDictionary
280
     1
281
     1
  3
AcDbContextDataManager
360
4EA
  0
DICTIONARY
  5
4EE
330
4ED
100
AcDbDictionary
280
     1
281
     1
  3
AcDbContextDataManager
360
4EF
  0
DICTIONARY
  5
4F3
330
4F2
100
AcDbDictionary
280
     1
281
     1
  3
AcDbContextDataManager
360
4F4
  0
DICTIONARY
  5
4F8
330
4F7
100
AcDbDictionary
280
     1
281
     1
  3
AcDbContextDataManager
360
4F9
  0
DICTIONARY
  5
4FD
330
4FC
100
AcDbDictionary
280
     1
281
     1
  3
AcDbContextDataManager
360
4FE
  0
DICTIONARY
  5
502
330
501
100
AcDbDictionary
280
     1
281
     1
  3
AcDbContextDataManager
360
503
  0
DICTIONARY
  5
507
330
506
100
AcDbDictionary
280
     1
281
     1
  3
AcDbContextDataManager
360
508
  0
DICTIONARY
  5
50C
330
50B
100
AcDbDictionary
280
     1
281
     1
  3
AcDbContextDataManager
360
50D
  0
DICTIONARY
  5
512
330
511
100
AcDbDictionary
280
     1
281
     1
  3
AcDbContextDataManager
360
513
  0
DICTIONARY
  5
517
330
516
100
AcDbDictionary
280
     1
281
     1
  3
AcDbContextDataManager
360
518
  0
DICTIONARY
  5
51C
330
51B
100
AcDbDictionary
280
     1
281
     1
  3
AcDbContextDataManager
360
51D
  0
DICTIONARY
  5
521
330
520
100
AcDbDictionary
280
     1
281
     1
  3
AcDbContextDataManager
360
522
  0
DICTIONARY
  5
526
330
525
100
AcDbDictionary
280
     1
281
     1
  3
AcDbContextDataManager
360
527
  0
DICTIONARY
  5
52B
330
52A
100
AcDbDictionary
280
     1
281
     1
  3
AcDbContextDataManager
360
52C
  0
DICTIONARY
  5
530
330
52F
100
AcDbDictionary
280
     1
281
     1
  3
AcDbContextDataManager
360
531
  0
DICTIONARY
  5
53A
330
539
100
AcDbDictionary
280
     1
281
     1
  3
AcDbContextDataManager
360
53B
  0
DICTIONARY
  5
53F
330
53E
100
AcDbDictionary
280
     1
281
     1
  3
AcDbContextDataManager
360
540
  0
DICTIONARY
  5
544
330
543
100
AcDbDictionary
280
     1
281
     1
  3
AcDbContextDataManager
360
545
  0
DICTIONARY
  5
54C
330
54B
100
AcDbDictionary
280
     1
281
     1
  3
AcDbContextDataManager
360
54D
  0
DICTIONARY
  5
551
330
550
100
AcDbDictionary
280
     1
281
     1
  3
AcDbContextDataManager
360
552
  0
DICTIONARY
  5
556
330
555
100
AcDbDictionary
280
     1
281
     1
  3
AcDbContextDataManager
360
557
  0
DICTIONARY
  5
55B
330
55A
100
AcDbDictionary
280
     1
281
     1
  3
AcDbContextDataManager
360
55C
  0
DICTIONARY
  5
560
330
55F
100
AcDbDictionary
280
     1
281
     1
  3
AcDbContextDataManager
360
561
  0
DICTIONARY
  5
56A
330
569
100
AcDbDictionary
280
     1
281
     1
  3
AcDbContextDataManager
360
56B
  0
DICTIONARY
  5
56F
330
56E
100
AcDbDictionary
280
     1
281
     1
  3
AcDbContextDataManager
360
570
  0
DICTIONARY
  5
574
330
573
100
AcDbDictionary
280
     1
281
     1
  3
AcDbContextDataManager
360
575
  0
DICTIONARY
  5
579
330
578
100
AcDbDictionary
280
     1
281
     1
  3
AcDbContextDataManager
360
57A
  0
DICTIONARY
  5
57E
330
57D
100
AcDbDictionary
280
     1
281
     1
  3
AcDbContextDataManager
360
57F
  0
DICTIONARY
  5
583
330
582
100
AcDbDictionary
280
     1
281
     1
  3
AcDbContextDataManager
360
584
  0
DICTIONARY
  5
588
330
587
100
AcDbDictionary
280
     1
281
     1
  3
AcDbContextDataManager
360
589
  0
DICTIONARY
  5
58D
330
58C
100
AcDbDictionary
280
     1
281
     1
  3
AcDbContextDataManager
360
58E
  0
DICTIONARY
  5
592
330
591
100
AcDbDictionary
280
     1
281
     1
  3
AcDbContextDataManager
360
593
  0
DICTIONARY
  5
597
330
596
100
AcDbDictionary
280
     1
281
     1
  3
AcDbContextDataManager
360
598
  0
DICTIONARY
  5
59C
330
59B
100
AcDbDictionary
280
     1
281
     1
  3
AcDbContextDataManager
360
59D
  0
DICTIONARY
  5
5F1
330
5F0
100
AcDbDictionary
280
     1
281
     1
  3
ACAD_DIMASSOC
360
5F2
  3
AcDbContextDataManager
360
5F3
  0
DICTIONARY
  5
5F7
330
5F6
100
AcDbDictionary
280
     1
281
     1
  3
ACAD_DIMASSOC
360
5F8
  3
AcDbContextDataManager
360
5F9
  0
DICTIONARY
  5
603
330
602
100
AcDbDictionary
280
     1
281
     1
  3
ACAD_DIMASSOC
360
604
  3
AcDbContextDataManager
360
605
  0
DICTIONARY
  5
609
330
608
100
AcDbDictionary
280
     1
281
     1
  3
ACAD_DIMASSOC
360
60A
  3
AcDbContextDataManager
360
60B
  0
DICTIONARY
  5
60F
330
60E
100
AcDbDictionary
280
     1
281
     1
  3
ACAD_DIMASSOC
360
610
  3
AcDbContextDataManager
360
611
  0
DICTIONARY
  5
615
330
614
100
AcDbDictionary
280
     1
281
     1
  3
ACAD_DIMASSOC
360
616
  3
AcDbContextDataManager
360
617
  0
DICTIONARY
  5
61B
330
61A
100
AcDbDictionary
280
     1
281
     1
  3
ACAD_DIMASSOC
360
61C
  3
AcDbContextDataManager
360
61D
  0
DICTIONARY
  5
623
330
622
100
AcDbDictionary
280
     1
281
     1
  3
AcDbContextDataManager
360
624
  0
DICTIONARY
  5
628
330
627
100
AcDbDictionary
280
     1
281
     1
  3
ACAD_DIMASSOC
360
629
  3
AcDbContextDataManager
360
62A
  0
DICTIONARY
  5
63A
330
639
100
AcDbDictionary
280
     1
281
     1
  3
AcDbContextDataManager
360
63B
  0
XRECORD
  5
1A5
102
{ACAD_REACTORS
330
C
102
}
330
C
100
AcDbXrecord
280
     1
300
ACD
300
2014
300
ACD_F_S
  0
DICTIONARY
  5
73
102
{ACAD_REACTORS
330
C
102
}
330
C
100
AcDbDictionary
281
     1
  0
DICTIONARY
  5
1AB
102
{ACAD_REACTORS
330
C
102
}
330
C
100
AcDbDictionary
281
     1
  3
Imperial24
350
1AC
  0
DICTIONARY
  5
D
102
{ACAD_REACTORS
330
C
102
}
330
C
100
AcDbDictionary
281
     1
  0
DICTIONARY
  5
1A
102
{ACAD_REACTORS
330
C
102
}
330
C
100
AcDbDictionary
281
     1
  3
Model
350
22
  3
配置1
350
59
  3
配置2
350
5E
  0
DICTIONARY
  5
72
102
{ACAD_REACTORS
330
C
102
}
330
C
100
AcDbDictionary
281
     1
  3
ByBlock
350
97
  3
ByLayer
350
96
  3
Global
350
98
  0
DICTIONARY
  5
D7
102
{ACAD_REACTORS
330
C
102
}
330
C
100
AcDbDictionary
281
     1
  3
Standard
350
D8
  3
可註解
350
E5
  0
DICTIONARY
  5
17
102
{ACAD_REACTORS
330
C
102
}
330
C
100
AcDbDictionary
281
     1
  3
Standard
350
18
  0
DICTIONARY
  5
19
102
{ACAD_REACTORS
330
C
102
}
330
C
100
AcDbDictionary
281
     1
  0
ACDBDICTIONARYWDFLT
  5
E
102
{ACAD_REACTORS
330
C
102
}
330
C
100
AcDbDictionary
281
     1
  3
Normal
350
F
100
AcDbDictionaryWithDefault
340
F
  0
DICTIONARY
  5
B6
102
{ACAD_REACTORS
330
C
102
}
330
C
100
AcDbDictionary
281
     1
  3
A0
350
B7
  3
A1
350
124
  3
A2
350
125
  3
A3
350
126
  3
A4
350
127
  3
A5
350
128
  3
A6
350
129
  3
A7
350
12A
  3
A8
350
12B
  3
A9
350
12C
  3
B0
350
12D
  3
B1
350
12E
  3
B2
350
12F
  3
B3
350
130
  3
B4
350
131
  3
B5
350
132
  3
B6
350
133
  3
B7
350
134
  3
B8
350
135
  3
B9
350
136
  3
C0
350
137
  3
C1
350
138
  3
C2
350
139
  3
C3
350
13A
  3
C4
350
13B
  3
C5
350
13C
  3
C6
350
13D
  3
C7
350
13E
  3
C8
350
13F
  3
C9
350
140
  3
D0
350
141
  3
D1
350
142
  3
D2
350
143
  0
DICTIONARY
  5
1A8
102
{ACAD_REACTORS
330
C
102
}
330
C
100
AcDbDictionary
281
     1
  3
Imperial24
350
1AA
  0
DICTIONARY
  5
86
102
{ACAD_REACTORS
330
C
102
}
330
C
100
AcDbDictionary
281
     1
  3
Standard
350
87
  0
DICTIONARY
  5
99
102
{ACAD_REACTORS
330
C
102
}
330
C
100
AcDbDictionary
281
     1
  3
2dWireframe
350
9F
  3
3dWireframe
350
263
  3
Basic
350
9E
  3
Brighten
350
A5
  3
ColorChange
350
A9
  3
Conceptual
350
A2
  3
Dim
350
A4
  3
EdgeColorOff
350
175
  3
Facepattern
350
A8
  3
Flat
350
9A
  3
FlatWithEdges
350
9B
  3
Gouraud
350
9C
  3
GouraudWithEdges
350
9D
  3
Hidden
350
A1
  3
JitterOff
350
173
  3
Linepattern
350
A7
  3
OverhangOff
350
174
  3
Realistic
350
A3
  3
Shaded
350
182
  3
Shaded with edges
350
181
  3
Shades of Gray
350
17E
  3
Sketchy
350
17F
  3
Thicken
350
A6
  3
Wireframe
350
A0
  3
X-Ray
350
180
  0
XRECORD
  5
832
102
{ACAD_REACTORS
330
C
102
}
330
C
100
AcDbXrecord
280
     1
 90
        1
330
87
330
47F
330
484
330
489
330
48E
330
493
330
498
330
49D
330
4A2
330
4A7
330
4AC
330
4B1
330
4B6
330
4BB
330
4C0
330
4C5
330
4CA
330
4CF
330
4D4
330
4D9
330
4DE
330
4E3
330
4E8
330
4ED
330
4F2
330
4F7
330
4FC
330
501
330
506
330
50B
330
511
330
516
330
51B
330
520
330
525
330
52A
330
52F
330
539
330
53E
330
543
330
54B
330
550
330
555
330
55A
330
55F
330
569
330
56E
330
573
330
578
330
57D
330
582
330
587
330
58C
330
591
330
596
330
59B
330
5F0
330
5F6
330
602
330
608
330
60E
330
614
330
61A
330
622
330
627
330
639
  0
DICTIONARY
  5
66
102
{ACAD_REACTORS
330
C
102
}
330
C
100
AcDbDictionary
281
     1
  3
CANNOSCALE
350
F0
  3
CMLEADERSTYLE
350
EF
  3
CTABLESTYLE
350
89
  3
CVIEWDETAILSTYLE
350
1B7
  3
CVIEWSECTIONSTYLE
350
1B8
  3
DIMASSOC
350
67
  3
HIDETEXT
350
6B
  3
INDEXCTL
350
77C
  3
LAYEREVAL
350
14D
  3
LAYERNOTIFY
350
14E
  3
LIGHTINGUNITS
350
77A
  3
MSLTSCALE
350
779
  3
SORTENTS
350
77B
  3
XCLIPFRAME
350
82D
  0
XRECORD
  5
833
102
{ACAD_REACTORS
330
C
102
}
330
C
100
AcDbXrecord
280
     1
  1
DWGPROPS COOKIE
  2

  3

  4

  6

  7

  8
wxj
  9

300
=
301
=
302
=
303
=
304
=
305
=
306
=
307
=
308
=
309
=
 40
0.0019369328703704
 41
2458487.690273924
 42
2458488.397518577
  1

 90
        0
  0
DICTIONARY
  5
1D2
102
{ACAD_REACTORS
330
C
102
}
330
C
100
AcDbDictionary
281
     1
  3
lxx_dimth
350
1D3
  0
DICTIONARY
  5
18F
102
{ACAD_REACTORS
330
18E
102
}
330
18E
100
AcDbDictionary
281
     1
  0
XRECORD
  5
831
102
{ACAD_REACTORS
330
830
102
}
330
830
100
AcDbXrecord
280
     1
 70
     1
340
B7
340
258
 70
    -1
  0
DICTIONARY
  5
481
102
{ACAD_REACTORS
330
480
102
}
330
480
100
AcDbDictionary
281
     1
  3
ACDB_ANNOTATIONSCALES
350
482
  0
DICTIONARY
  5
486
102
{ACAD_REACTORS
330
485
102
}
330
485
100
AcDbDictionary
281
     1
  3
ACDB_ANNOTATIONSCALES
350
487
  0
DICTIONARY
  5
48B
102
{ACAD_REACTORS
330
48A
102
}
330
48A
100
AcDbDictionary
281
     1
  3
ACDB_ANNOTATIONSCALES
350
48C
  0
DICTIONARY
  5
490
102
{ACAD_REACTORS
330
48F
102
}
330
48F
100
AcDbDictionary
281
     1
  3
ACDB_ANNOTATIONSCALES
350
491
  0
DICTIONARY
  5
495
102
{ACAD_REACTORS
330
494
102
}
330
494
100
AcDbDictionary
281
     1
  3
ACDB_ANNOTATIONSCALES
350
496
  0
DICTIONARY
  5
49A
102
{ACAD_REACTORS
330
499
102
}
330
499
100
AcDbDictionary
281
     1
  3
ACDB_ANNOTATIONSCALES
350
49B
  0
DICTIONARY
  5
49F
102
{ACAD_REACTORS
330
49E
102
}
330
49E
100
AcDbDictionary
281
     1
  3
ACDB_ANNOTATIONSCALES
350
4A0
  0
DICTIONARY
  5
4A4
102
{ACAD_REACTORS
330
4A3
102
}
330
4A3
100
AcDbDictionary
281
     1
  3
ACDB_ANNOTATIONSCALES
350
4A5
  0
DICTIONARY
  5
4A9
102
{ACAD_REACTORS
330
4A8
102
}
330
4A8
100
AcDbDictionary
281
     1
  3
ACDB_ANNOTATIONSCALES
350
4AA
  0
DICTIONARY
  5
4AE
102
{ACAD_REACTORS
330
4AD
102
}
330
4AD
100
AcDbDictionary
281
     1
  3
ACDB_ANNOTATIONSCALES
350
4AF
  0
DICTIONARY
  5
4B3
102
{ACAD_REACTORS
330
4B2
102
}
330
4B2
100
AcDbDictionary
281
     1
  3
ACDB_ANNOTATIONSCALES
350
4B4
  0
DICTIONARY
  5
4B8
102
{ACAD_REACTORS
330
4B7
102
}
330
4B7
100
AcDbDictionary
281
     1
  3
ACDB_ANNOTATIONSCALES
350
4B9
  0
DICTIONARY
  5
4BD
102
{ACAD_REACTORS
330
4BC
102
}
330
4BC
100
AcDbDictionary
281
     1
  3
ACDB_ANNOTATIONSCALES
350
4BE
  0
DICTIONARY
  5
4C2
102
{ACAD_REACTORS
330
4C1
102
}
330
4C1
100
AcDbDictionary
281
     1
  3
ACDB_ANNOTATIONSCALES
350
4C3
  0
DICTIONARY
  5
4C7
102
{ACAD_REACTORS
330
4C6
102
}
330
4C6
100
AcDbDictionary
281
     1
  3
ACDB_ANNOTATIONSCALES
350
4C8
  0
DICTIONARY
  5
4CC
102
{ACAD_REACTORS
330
4CB
102
}
330
4CB
100
AcDbDictionary
281
     1
  3
ACDB_ANNOTATIONSCALES
350
4CD
  0
DICTIONARY
  5
4D1
102
{ACAD_REACTORS
330
4D0
102
}
330
4D0
100
AcDbDictionary
281
     1
  3
ACDB_ANNOTATIONSCALES
350
4D2
  0
DICTIONARY
  5
4D6
102
{ACAD_REACTORS
330
4D5
102
}
330
4D5
100
AcDbDictionary
281
     1
  3
ACDB_ANNOTATIONSCALES
350
4D7
  0
DICTIONARY
  5
4DB
102
{ACAD_REACTORS
330
4DA
102
}
330
4DA
100
AcDbDictionary
281
     1
  3
ACDB_ANNOTATIONSCALES
350
4DC
  0
DICTIONARY
  5
4E0
102
{ACAD_REACTORS
330
4DF
102
}
330
4DF
100
AcDbDictionary
281
     1
  3
ACDB_ANNOTATIONSCALES
350
4E1
  0
DICTIONARY
  5
4E5
102
{ACAD_REACTORS
330
4E4
102
}
330
4E4
100
AcDbDictionary
281
     1
  3
ACDB_ANNOTATIONSCALES
350
4E6
  0
DICTIONARY
  5
4EA
102
{ACAD_REACTORS
330
4E9
102
}
330
4E9
100
AcDbDictionary
281
     1
  3
ACDB_ANNOTATIONSCALES
350
4EB
  0
DICTIONARY
  5
4EF
102
{ACAD_REACTORS
330
4EE
102
}
330
4EE
100
AcDbDictionary
281
     1
  3
ACDB_ANNOTATIONSCALES
350
4F0
  0
DICTIONARY
  5
4F4
102
{ACAD_REACTORS
330
4F3
102
}
330
4F3
100
AcDbDictionary
281
     1
  3
ACDB_ANNOTATIONSCALES
350
4F5
  0
DICTIONARY
  5
4F9
102
{ACAD_REACTORS
330
4F8
102
}
330
4F8
100
AcDbDictionary
281
     1
  3
ACDB_ANNOTATIONSCALES
350
4FA
  0
DICTIONARY
  5
4FE
102
{ACAD_REACTORS
330
4FD
102
}
330
4FD
100
AcDbDictionary
281
     1
  3
ACDB_ANNOTATIONSCALES
350
4FF
  0
DICTIONARY
  5
503
102
{ACAD_REACTORS
330
502
102
}
330
502
100
AcDbDictionary
281
     1
  3
ACDB_ANNOTATIONSCALES
350
504
  0
DICTIONARY
  5
508
102
{ACAD_REACTORS
330
507
102
}
330
507
100
AcDbDictionary
281
     1
  3
ACDB_ANNOTATIONSCALES
350
509
  0
DICTIONARY
  5
50D
102
{ACAD_REACTORS
330
50C
102
}
330
50C
100
AcDbDictionary
281
     1
  3
ACDB_ANNOTATIONSCALES
350
50E
  0
DICTIONARY
  5
513
102
{ACAD_REACTORS
330
512
102
}
330
512
100
AcDbDictionary
281
     1
  3
ACDB_ANNOTATIONSCALES
350
514
  0
DICTIONARY
  5
518
102
{ACAD_REACTORS
330
517
102
}
330
517
100
AcDbDictionary
281
     1
  3
ACDB_ANNOTATIONSCALES
350
519
  0
DICTIONARY
  5
51D
102
{ACAD_REACTORS
330
51C
102
}
330
51C
100
AcDbDictionary
281
     1
  3
ACDB_ANNOTATIONSCALES
350
51E
  0
DICTIONARY
  5
522
102
{ACAD_REACTORS
330
521
102
}
330
521
100
AcDbDictionary
281
     1
  3
ACDB_ANNOTATIONSCALES
350
523
  0
DICTIONARY
  5
527
102
{ACAD_REACTORS
330
526
102
}
330
526
100
AcDbDictionary
281
     1
  3
ACDB_ANNOTATIONSCALES
350
528
  0
DICTIONARY
  5
52C
102
{ACAD_REACTORS
330
52B
102
}
330
52B
100
AcDbDictionary
281
     1
  3
ACDB_ANNOTATIONSCALES
350
52D
  0
DICTIONARY
  5
531
102
{ACAD_REACTORS
330
530
102
}
330
530
100
AcDbDictionary
281
     1
  3
ACDB_ANNOTATIONSCALES
350
532
  0
DICTIONARY
  5
53B
102
{ACAD_REACTORS
330
53A
102
}
330
53A
100
AcDbDictionary
281
     1
  3
ACDB_ANNOTATIONSCALES
350
53C
  0
DICTIONARY
  5
540
102
{ACAD_REACTORS
330
53F
102
}
330
53F
100
AcDbDictionary
281
     1
  3
ACDB_ANNOTATIONSCALES
350
541
  0
DICTIONARY
  5
545
102
{ACAD_REACTORS
330
544
102
}
330
544
100
AcDbDictionary
281
     1
  3
ACDB_ANNOTATIONSCALES
350
546
  0
DICTIONARY
  5
54D
102
{ACAD_REACTORS
330
54C
102
}
330
54C
100
AcDbDictionary
281
     1
  3
ACDB_ANNOTATIONSCALES
350
54E
  0
DICTIONARY
  5
552
102
{ACAD_REACTORS
330
551
102
}
330
551
100
AcDbDictionary
281
     1
  3
ACDB_ANNOTATIONSCALES
350
553
  0
DICTIONARY
  5
557
102
{ACAD_REACTORS
330
556
102
}
330
556
100
AcDbDictionary
281
     1
  3
ACDB_ANNOTATIONSCALES
350
558
  0
DICTIONARY
  5
55C
102
{ACAD_REACTORS
330
55B
102
}
330
55B
100
AcDbDictionary
281
     1
  3
ACDB_ANNOTATIONSCALES
350
55D
  0
DICTIONARY
  5
561
102
{ACAD_REACTORS
330
560
102
}
330
560
100
AcDbDictionary
281
     1
  3
ACDB_ANNOTATIONSCALES
350
562
  0
DICTIONARY
  5
56B
102
{ACAD_REACTORS
330
56A
102
}
330
56A
100
AcDbDictionary
281
     1
  3
ACDB_ANNOTATIONSCALES
350
56C
  0
DICTIONARY
  5
570
102
{ACAD_REACTORS
330
56F
102
}
330
56F
100
AcDbDictionary
281
     1
  3
ACDB_ANNOTATIONSCALES
350
571
  0
DICTIONARY
  5
575
102
{ACAD_REACTORS
330
574
102
}
330
574
100
AcDbDictionary
281
     1
  3
ACDB_ANNOTATIONSCALES
350
576
  0
DICTIONARY
  5
57A
102
{ACAD_REACTORS
330
579
102
}
330
579
100
AcDbDictionary
281
     1
  3
ACDB_ANNOTATIONSCALES
350
57B
  0
DICTIONARY
  5
57F
102
{ACAD_REACTORS
330
57E
102
}
330
57E
100
AcDbDictionary
281
     1
  3
ACDB_ANNOTATIONSCALES
350
580
  0
DICTIONARY
  5
584
102
{ACAD_REACTORS
330
583
102
}
330
583
100
AcDbDictionary
281
     1
  3
ACDB_ANNOTATIONSCALES
350
585
  0
DICTIONARY
  5
589
102
{ACAD_REACTORS
330
588
102
}
330
588
100
AcDbDictionary
281
     1
  3
ACDB_ANNOTATIONSCALES
350
58A
  0
DICTIONARY
  5
58E
102
{ACAD_REACTORS
330
58D
102
}
330
58D
100
AcDbDictionary
281
     1
  3
ACDB_ANNOTATIONSCALES
350
58F
  0
DICTIONARY
  5
593
102
{ACAD_REACTORS
330
592
102
}
330
592
100
AcDbDictionary
281
     1
  3
ACDB_ANNOTATIONSCALES
350
594
  0
DICTIONARY
  5
598
102
{ACAD_REACTORS
330
597
102
}
330
597
100
AcDbDictionary
281
     1
  3
ACDB_ANNOTATIONSCALES
350
599
  0
DICTIONARY
  5
59D
102
{ACAD_REACTORS
330
59C
102
}
330
59C
100
AcDbDictionary
281
     1
  3
ACDB_ANNOTATIONSCALES
350
59E
  0
DIMASSOC
  5
5F2
102
{ACAD_REACTORS
330
5F1
102
}
330
5F1
100
AcDbDimAssoc
330
5F0
 90
        3
 70
     0
 71
     0
  1
AcDbOsnapPointRef
 72
     6
331
5D9
 73
     2
 91
        0
 40
1.0
 10
0.0
 20
0.0
 30
0.0
332
5DC
 74
     2
 92
        0
 75
     0
  1
AcDbOsnapPointRef
 72
     1
331
5DA
 73
     2
 91
        0
 40
1.0
 10
0.0
 20
0.0
 30
2.000000000000000E+50
 75
     0
  0
DICTIONARY
  5
5F3
102
{ACAD_REACTORS
330
5F1
102
}
330
5F1
100
AcDbDictionary
281
     1
  3
ACDB_ANNOTATIONSCALES
350
5F4
  0
DIMASSOC
  5
5F8
102
{ACAD_REACTORS
330
5F7
102
}
330
5F7
100
AcDbDimAssoc
330
5F6
 90
        2
 70
     0
 71
     0
  1
AcDbOsnapPointRef
 72
     1
331
5C2
 73
     2
 91
        0
 40
1.0
 10
0.0
 20
0.0
 30
2.000000000000000E+50
 75
     0
  0
DICTIONARY
  5
5F9
102
{ACAD_REACTORS
330
5F7
102
}
330
5F7
100
AcDbDictionary
281
     1
  3
ACDB_ANNOTATIONSCALES
350
5FA
  0
DIMASSOC
  5
604
102
{ACAD_REACTORS
330
603
102
}
330
603
100
AcDbDimAssoc
330
602
 90
        3
 70
     0
 71
     0
  1
AcDbOsnapPointRef
 72
     1
331
5C2
 73
     2
 91
        0
 40
1.0
 10
0.0
 20
0.0
 30
2.000000000000000E+50
 75
     0
  1
AcDbOsnapPointRef
 72
     1
331
5DB
 73
     2
 91
        0
 40
1.0
 10
0.0
 20
0.0
 30
2.000000000000000E+50
 75
     0
  0
DICTIONARY
  5
605
102
{ACAD_REACTORS
330
603
102
}
330
603
100
AcDbDictionary
281
     1
  3
ACDB_ANNOTATIONSCALES
350
606
  0
DIMASSOC
  5
60A
102
{ACAD_REACTORS
330
609
102
}
330
609
100
AcDbDimAssoc
330
608
 90
        3
 70
     0
 71
     0
  1
AcDbOsnapPointRef
 72
     1
331
5C2
 73
     2
 91
        0
 40
1.0
 10
0.0
 20
0.0
 30
2.000000000000000E+50
 75
     0
  1
AcDbOsnapPointRef
 72
    13
331
5A3
 73
     2
 91
        0
 40
0.0
 10
0.0
 20
0.0
 30
2.000000000000000E+50
 75
     0
  0
DICTIONARY
  5
60B
102
{ACAD_REACTORS
330
609
102
}
330
609
100
AcDbDictionary
281
     1
  3
ACDB_ANNOTATIONSCALES
350
60C
  0
DIMASSOC
  5
610
102
{ACAD_REACTORS
330
60F
102
}
330
60F
100
AcDbDimAssoc
330
60E
 90
        3
 70
     0
 71
     0
  1
AcDbOsnapPointRef
 72
    13
331
5B3
 73
     2
 91
        0
 40
0.0
 10
0.0
 20
0.0
 30
2.000000000000000E+50
 75
     0
  1
AcDbOsnapPointRef
 72
    13
331
5C4
 73
     2
 91
        0
 40
4.712388980384688
 10
0.0
 20
0.0
 30
2.000000000000000E+50
 75
     0
  0
DICTIONARY
  5
611
102
{ACAD_REACTORS
330
60F
102
}
330
60F
100
AcDbDictionary
281
     1
  3
ACDB_ANNOTATIONSCALES
350
612
  0
DIMASSOC
  5
616
102
{ACAD_REACTORS
330
615
102
}
330
615
100
AcDbDimAssoc
330
614
 90
        3
 70
     0
 71
     0
  1
AcDbOsnapPointRef
 72
     1
331
5BB
 73
     2
 91
        0
 40
1.0
 10
0.0
 20
0.0
 30
2.000000000000000E+50
 75
     0
  1
AcDbOsnapPointRef
 72
     1
331
5C2
 73
     2
 91
        0
 40
1.0
 10
0.0
 20
0.0
 30
2.000000000000000E+50
 75
     0
  0
DICTIONARY
  5
617
102
{ACAD_REACTORS
330
615
102
}
330
615
100
AcDbDictionary
281
     1
  3
ACDB_ANNOTATIONSCALES
350
618
  0
DIMASSOC
  5
61C
102
{ACAD_REACTORS
330
61B
102
}
330
61B
100
AcDbDimAssoc
330
61A
 90
        3
 70
     0
 71
     0
  1
AcDbOsnapPointRef
 72
    13
331
5C5
 73
     2
 91
        0
 40
3.141592653589792
 10
0.0
 20
0.0
 30
2.000000000000000E+50
 75
     0
  1
AcDbOsnapPointRef
 72
     1
331
5BF
 73
     2
 91
        0
 40
6.283185307179585
 10
0.0
 20
0.0
 30
2.000000000000000E+50
 75
     0
  0
DICTIONARY
  5
61D
102
{ACAD_REACTORS
330
61B
102
}
330
61B
100
AcDbDictionary
281
     1
  3
ACDB_ANNOTATIONSCALES
350
61E
  0
DICTIONARY
  5
624
102
{ACAD_REACTORS
330
623
102
}
330
623
100
AcDbDictionary
281
     1
  3
ACDB_ANNOTATIONSCALES
350
625
  0
DIMASSOC
  5
629
102
{ACAD_REACTORS
330
628
102
}
330
628
100
AcDbDimAssoc
330
627
 90
        3
 70
     0
 71
     0
  1
AcDbOsnapPointRef
 72
     1
331
5E9
 73
     2
 91
        0
 40
7.337506493128322
 10
0.0
 20
0.0
 30
2.000000000000000E+50
 75
     0
  1
AcDbOsnapPointRef
 72
     6
331
5EB
 73
     2
 91
        0
 40
1.0
 10
0.0
 20
0.0
 30
0.0
332
5E9
 74
     2
 92
        0
 75
     0
  0
DICTIONARY
  5
62A
102
{ACAD_REACTORS
330
628
102
}
330
628
100
AcDbDictionary
281
     1
  3
ACDB_ANNOTATIONSCALES
350
62B
  0
DICTIONARY
  5
63B
102
{ACAD_REACTORS
330
63A
102
}
330
63A
100
AcDbDictionary
281
     1
  3
ACDB_ANNOTATIONSCALES
350
63C
  0
ACDBDETAILVIEWSTYLE
  5
1AC
102
{ACAD_XDICTIONARY
360
86D
102
}
102
{ACAD_REACTORS
330
1AB
102
}
330
1AB
100
AcDbModelDocViewStyle
 70
     0
  3
Imperial24
290
     0
100
AcDbDetailViewStyle
 70
     0
 71
     0
 90
        3
 71
     1
340
11
 40
0.24
340
0
 40
0.24
300

 40
0.36
280
     3
 71
     2
340
16
 90
       25
 71
     3
340
11
 40
0.24
 90
        1
 40
0.75
 90
        1
300
%<\AcVar ViewType \f "%tc1">% %<\AcVar ViewDetailId>%\PSCALE %<\AcVar ViewScale \f "%sn">%
 71
     4
340
16
 90
       25
340
16
 90
       25
280
     0
  0
LAYOUT
  5
22
102
{ACAD_XDICTIONARY
360
834
102
}
102
{ACAD_REACTORS
330
1A
102
}
330
1A
100
AcDbPlotSettings
  1

  2
none_device
  4
ANSI_A_(8.50_x_11.00_Inches)
  6

 40
6.349999904632567
 41
19.04999923706055
 42
6.350006103515625
 43
19.04998779296875
 44
215.8999938964844
 45
279.3999938964844
 46
0.0
 47
0.0
 48
0.0
 49
0.0
140
0.0
141
0.0
142
1.0
143
2.584895464708373
 70
 11952
 72
     0
 73
     1
 74
     0
  7

 75
     0
147
0.3868628397755418
148
0.0
149
0.0
100
AcDbLayout
  1
Model
 70
     1
 71
     0
 10
0.0
 20
0.0
 11
12.0
 21
9.0
 12
0.0
 22
0.0
 32
0.0
 14
0.0
 24
0.0
 34
0.0
 15
0.0
 25
0.0
 35
0.0
146
0.0
 13
0.0
 23
0.0
 33
0.0
 16
1.0
 26
0.0
 36
0.0
 17
0.0
 27
1.0
 37
0.0
 76
     0
330
1F
331
94
  0
LAYOUT
  5
59
102
{ACAD_XDICTIONARY
360
836
102
}
102
{ACAD_REACTORS
330
1A
102
}
330
1A
100
AcDbPlotSettings
  1

  2
None
  4

  6

 40
0.0
 41
0.0
 42
0.0
 43
0.0
 44
0.0
 45
0.0
 46
0.0
 47
0.0
 48
0.0
 49
0.0
140
0.0
141
0.0
142
1.0
143
1.0
 70
   688
 72
     0
 73
     0
 74
     5
  7

 75
    16
147
1.0
148
0.0
149
0.0
100
AcDbLayout
  1
配置1
 70
     1
 71
     1
 10
0.0
 20
0.0
 11
12.0
 21
9.0
 12
0.0
 22
0.0
 32
0.0
 14
0.0
 24
0.0
 34
0.0
 15
0.0
 25
0.0
 35
0.0
146
0.0
 13
0.0
 23
0.0
 33
0.0
 16
1.0
 26
0.0
 36
0.0
 17
0.0
 27
1.0
 37
0.0
 76
     0
330
58
  0
LAYOUT
  5
5E
102
{ACAD_XDICTIONARY
360
838
102
}
102
{ACAD_REACTORS
330
1A
102
}
330
1A
100
AcDbPlotSettings
  1

  2
None
  4

  6

 40
0.0
 41
0.0
 42
0.0
 43
0.0
 44
0.0
 45
0.0
 46
0.0
 47
0.0
 48
0.0
 49
0.0
140
0.0
141
0.0
142
1.0
143
1.0
 70
   688
 72
     0
 73
     0
 74
     5
  7

 75
    16
147
1.0
148
0.0
149
0.0
100
AcDbLayout
  1
配置2
 70
     1
 71
     2
 10
0.0
 20
0.0
 11
12.0
 21
9.0
 12
0.0
 22
0.0
 32
0.0
 14
0.0
 24
0.0
 34
0.0
 15
0.0
 25
0.0
 35
0.0
146
0.0
 13
0.0
 23
0.0
 33
0.0
 16
1.0
 26
0.0
 36
0.0
 17
0.0
 27
1.0
 37
0.0
 76
     0
330
5D
  0
MATERIAL
  5
97
102
{ACAD_XDICTIONARY
360
188
102
}
102
{ACAD_REACTORS
330
72
102
}
330
72
100
AcDbMaterial
  1
ByBlock
  0
MATERIAL
  5
96
102
{ACAD_XDICTIONARY
360
186
102
}
102
{ACAD_REACTORS
330
72
102
}
330
72
100
AcDbMaterial
  1
ByLayer
  0
MATERIAL
  5
98
102
{ACAD_XDICTIONARY
360
110
102
}
102
{ACAD_REACTORS
330
72
102
}
330
72
100
AcDbMaterial
  1
Global
 43
0.0208000000566244
 43
0.0
 43
0.0
 43
0.0
 43
0.0
 43
0.0208000000566244
 43
0.0
 43
0.0
 43
0.0
 43
0.0
 43
1.0
 43
0.0
 43
0.0
 43
0.0
 43
0.0
 43
1.0
 49
0.0208000000566244
 49
0.0
 49
0.0
 49
0.0
 49
0.0
 49
0.0208000000566244
 49
0.0
 49
0.0
 49
0.0
 49
0.0
 49
1.0
 49
0.0
 49
0.0
 49
0.0
 49
0.0
 49
1.0
142
0.0208000000566244
142
0.0
142
0.0
142
0.0
142
0.0
142
0.0208000000566244
142
0.0
142
0.0
142
0.0
142
0.0
142
1.0
142
0.0
142
0.0
142
0.0
142
0.0
142
1.0
144
0.0208000000566244
144
0.0
144
0.0
144
0.0
144
0.0
144
0.0208000000566244
144
0.0
144
0.0
144
0.0
144
0.0
144
1.0
144
0.0
144
0.0
144
0.0
144
0.0
144
1.0
1001
ACAD
1070
    -1
1070
     3
1070
     0
1000

1071
        0
1070
     0
  0
MLEADERSTYLE
  5
D8
102
{ACAD_REACTORS
330
D7
102
}
330
D7
100
AcDbMLeaderStyle
170
     2
171
     1
172
     0
 90
        2
 40
0.0
 41
0.0
173
     1
 91
-1056964608
340
14
 92
       -2
290
     1
 42
0.09
291
     1
 43
0.36
  3
Standard
 44
0.18
300

342
11
174
     1
178
     1
175
     1
176
     0
 93
-1056964608
 45
0.18
292
     0
297
     0
 46
0.18
 94
-1056964608
 47
1.0
 49
1.0
140
1.0
293
     1
141
0.0
294
     1
177
     0
142
1.0
295
     0
296
     0
143
0.125
1001
ACAD_MLEADERVER
1070
     2
  0
MLEADERSTYLE
  5
E5
102
{ACAD_REACTORS
330
D7
102
}
330
D7
100
AcDbMLeaderStyle
170
     2
171
     1
172
     0
 90
        2
 40
0.0
 41
0.0
173
     1
 91
-1056964608
340
14
 92
       -2
290
     1
 42
0.09
291
     1
 43
0.36
  3
Standard
 44
0.18
300

342
11
174
     1
178
     1
175
     1
176
     0
 93
-1056964608
 45
0.18
292
     0
297
     0
 46
0.18
 94
-1056964608
 47
1.0
 49
1.0
140
1.0
293
     1
141
0.0
294
     1
177
     0
142
1.0
295
     0
296
     1
143
0.125
1001
ACAD_MLEADERVER
1070
     2
  0
MLINESTYLE
  5
18
102
{ACAD_REACTORS
330
17
102
}
330
17
100
AcDbMlineStyle
  2
STANDARD
 70
     0
  3

 62
   256
 51
90.0
 52
90.0
 71
     2
 49
0.5
 62
   256
  6
BYLAYER
 49
-0.5
 62
   256
  6
BYLAYER
  0
ACDBPLACEHOLDER
  5
F
102
{ACAD_REACTORS
330
E
102
}
330
E
  0
SCALE
  5
B7
102
{ACAD_REACTORS
330
B6
102
}
330
B6
100
AcDbScale
 70
     0
300
1:1
140
1.0
141
1.0
290
     1
  0
SCALE
  5
124
102
{ACAD_REACTORS
330
B6
102
}
330
B6
100
AcDbScale
 70
     0
300
1:2
140
1.0
141
2.0
290
     0
  0
SCALE
  5
125
102
{ACAD_REACTORS
330
B6
102
}
330
B6
100
AcDbScale
 70
     0
300
1:4
140
1.0
141
4.0
290
     0
  0
SCALE
  5
126
102
{ACAD_REACTORS
330
B6
102
}
330
B6
100
AcDbScale
 70
     0
300
1:5
140
1.0
141
5.0
290
     0
  0
SCALE
  5
127
102
{ACAD_REACTORS
330
B6
102
}
330
B6
100
AcDbScale
 70
     0
300
1:8
140
1.0
141
8.0
290
     0
  0
SCALE
  5
128
102
{ACAD_REACTORS
330
B6
102
}
330
B6
100
AcDbScale
 70
     0
300
1:10
140
1.0
141
10.0
290
     0
  0
SCALE
  5
129
102
{ACAD_REACTORS
330
B6
102
}
330
B6
100
AcDbScale
 70
     0
300
1:16
140
1.0
141
16.0
290
     0
  0
SCALE
  5
12A
102
{ACAD_REACTORS
330
B6
102
}
330
B6
100
AcDbScale
 70
     0
300
1:20
140
1.0
141
20.0
290
     0
  0
SCALE
  5
12B
102
{ACAD_REACTORS
330
B6
102
}
330
B6
100
AcDbScale
 70
     0
300
1:30
140
1.0
141
30.0
290
     0
  0
SCALE
  5
12C
102
{ACAD_REACTORS
330
B6
102
}
330
B6
100
AcDbScale
 70
     0
300
1:40
140
1.0
141
40.0
290
     0
  0
SCALE
  5
12D
102
{ACAD_REACTORS
330
B6
102
}
330
B6
100
AcDbScale
 70
     0
300
1:50
140
1.0
141
50.0
290
     0
  0
SCALE
  5
12E
102
{ACAD_REACTORS
330
B6
102
}
330
B6
100
AcDbScale
 70
     0
300
1:100
140
1.0
141
100.0
290
     0
  0
SCALE
  5
12F
102
{ACAD_REACTORS
330
B6
102
}
330
B6
100
AcDbScale
 70
     0
300
2:1
140
2.0
141
1.0
290
     0
  0
SCALE
  5
130
102
{ACAD_REACTORS
330
B6
102
}
330
B6
100
AcDbScale
 70
     0
300
4:1
140
4.0
141
1.0
290
     0
  0
SCALE
  5
131
102
{ACAD_REACTORS
330
B6
102
}
330
B6
100
AcDbScale
 70
     0
300
8:1
140
8.0
141
1.0
290
     0
  0
SCALE
  5
132
102
{ACAD_REACTORS
330
B6
102
}
330
B6
100
AcDbScale
 70
     0
300
10:1
140
10.0
141
1.0
290
     0
  0
SCALE
  5
133
102
{ACAD_REACTORS
330
B6
102
}
330
B6
100
AcDbScale
 70
     0
300
100:1
140
100.0
141
1.0
290
     0
  0
SCALE
  5
134
102
{ACAD_REACTORS
330
B6
102
}
330
B6
100
AcDbScale
 70
     0
300
1/128" = 1'-0"
140
0.0078125
141
12.0
290
     0
  0
SCALE
  5
135
102
{ACAD_REACTORS
330
B6
102
}
330
B6
100
AcDbScale
 70
     0
300
1/64" = 1'-0"
140
0.015625
141
12.0
290
     0
  0
SCALE
  5
136
102
{ACAD_REACTORS
330
B6
102
}
330
B6
100
AcDbScale
 70
     0
300
1/32" = 1'-0"
140
0.03125
141
12.0
290
     0
  0
SCALE
  5
137
102
{ACAD_REACTORS
330
B6
102
}
330
B6
100
AcDbScale
 70
     0
300
1/16" = 1'-0"
140
0.0625
141
12.0
290
     0
  0
SCALE
  5
138
102
{ACAD_REACTORS
330
B6
102
}
330
B6
100
AcDbScale
 70
     0
300
3/32" = 1'-0"
140
0.09375
141
12.0
290
     0
  0
SCALE
  5
139
102
{ACAD_REACTORS
330
B6
102
}
330
B6
100
AcDbScale
 70
     0
300
1/8" = 1'-0"
140
0.125
141
12.0
290
     0
  0
SCALE
  5
13A
102
{ACAD_REACTORS
330
B6
102
}
330
B6
100
AcDbScale
 70
     0
300
3/16" = 1'-0"
140
0.1875
141
12.0
290
     0
  0
SCALE
  5
13B
102
{ACAD_REACTORS
330
B6
102
}
330
B6
100
AcDbScale
 70
     0
300
1/4" = 1'-0"
140
0.25
141
12.0
290
     0
  0
SCALE
  5
13C
102
{ACAD_REACTORS
330
B6
102
}
330
B6
100
AcDbScale
 70
     0
300
3/8" = 1'-0"
140
0.375
141
12.0
290
     0
  0
SCALE
  5
13D
102
{ACAD_REACTORS
330
B6
102
}
330
B6
100
AcDbScale
 70
     0
300
1/2" = 1'-0"
140
0.5
141
12.0
290
     0
  0
SCALE
  5
13E
102
{ACAD_REACTORS
330
B6
102
}
330
B6
100
AcDbScale
 70
     0
300
3/4" = 1'-0"
140
0.75
141
12.0
290
     0
  0
SCALE
  5
13F
102
{ACAD_REACTORS
330
B6
102
}
330
B6
100
AcDbScale
 70
     0
300
1" = 1'-0"
140
1.0
141
12.0
290
     0
  0
SCALE
  5
140
102
{ACAD_REACTORS
330
B6
102
}
330
B6
100
AcDbScale
 70
     0
300
1-1/2" = 1'-0"
140
1.5
141
12.0
290
     0
  0
SCALE
  5
141
102
{ACAD_REACTORS
330
B6
102
}
330
B6
100
AcDbScale
 70
     0
300
3" = 1'-0"
140
3.0
141
12.0
290
     0
  0
SCALE
  5
142
102
{ACAD_REACTORS
330
B6
102
}
330
B6
100
AcDbScale
 70
     0
300
6" = 1'-0"
140
6.0
141
12.0
290
     0
  0
SCALE
  5
143
102
{ACAD_REACTORS
330
B6
102
}
330
B6
100
AcDbScale
 70
     0
300
1'-0" = 1'-0"
140
12.0
141
12.0
290
     0
  0
ACDBSECTIONVIEWSTYLE
  5
1AA
102
{ACAD_XDICTIONARY
360
86B
102
}
102
{ACAD_REACTORS
330
1A8
102
}
330
1A8
100
AcDbModelDocViewStyle
 70
     0
  3
Imperial24
290
     0
100
AcDbSectionViewStyle
 70
     0
 71
     0
 90
       78
 71
     1
340
11
 40
0.24
340
0
340
0
 40
0.24
300
I, O, Q, S, X, Z
 40
0.48
 90
        3
 40
0.18
 90
        1
 71
     2
340
16
 90
       25
340
16
 90
       50
 40
0.24
 40
0.0
 40
0.24
 71
     3
340
11
 40
0.24
 90
        1
 40
0.75
 90
        1
300
%<\AcVar ViewType \f "%tc1">% %<\AcVar ViewSectionStartId>%-%<\AcVar ViewSectionEndId>%\PSCALE %<\AcVar ViewScale \f "%sn">%
 71
     4
300
ANSI31
 40
1.0
 90
        0
290
     0
290
     0
 90
        6
 40
0.0
 40
1.570796326794896
 40
0.2617993877991494
 40
1.308996938995747
 40
-0.2617993877991494
 40
1.832595714594045
  0
TABLESTYLE
  5
87
102
{ACAD_XDICTIONARY
360
104
102
}
102
{ACAD_REACTORS
330
86
102
}
330
86
100
AcDbTableStyle
  3
Standard
 70
     0
 71
     0
 40
0.06
 41
0.06
280
     0
281
     0
  7
Standard
140
0.18
170
     2
 62
     0
 63
     7
283
     0
274
    -2
284
     1
 64
     0
275
    -2
285
     1
 65
     0
276
    -2
286
     1
 66
     0
277
    -2
287
     1
 67
     0
278
    -2
288
     1
 68
     0
279
    -2
289
     1
 69
     0
  7
Standard
140
0.25
170
     5
 62
     0
 63
     7
283
     0
274
    -2
284
     1
 64
     0
275
    -2
285
     1
 65
     0
276
    -2
286
     1
 66
     0
277
    -2
287
     1
 67
     0
278
    -2
288
     1
 68
     0
279
    -2
289
     1
 69
     0
  7
Standard
140
0.18
170
     5
 62
     0
 63
     7
283
     0
274
    -2
284
     1
 64
     0
275
    -2
285
     1
 65
     0
276
    -2
286
     1
 66
     0
277
    -2
287
     1
 67
     0
278
    -2
288
     1
 68
     0
279
    -2
289
     1
 69
     0
  0
VISUALSTYLE
  5
9F
102
{ACAD_XDICTIONARY
360
845
102
}
102
{ACAD_REACTORS
330
99
102
}
330
99
100
AcDbVisualStyle
  2

 70
     4
 71
     0
 72
     2
 73
     1
 90
        0
 40
-0.6
 41
-30.0
 62
     5
 63
     7
 74
     1
 91
        4
 64
     7
 65
   257
 75
     1
175
     1
 42
1.0
 92
        0
 66
   257
 43
1.0
 76
     1
 77
     6
 78
     2
 67
     7
 79
     5
170
     0
171
     0
290
     0
174
     0
 93
        1
 44
0.0
173
     0
291
     0
 45
0.0
1001
ACAD
1000
AcDbSavedByObjectVersion
1070
     0
  0
VISUALSTYLE
  5
263
102
{ACAD_XDICTIONARY
360
86F
102
}
102
{ACAD_REACTORS
330
99
102
}
330
99
100
AcDbVisualStyle
  2

 70
     5
 71
     0
 72
     2
 73
     0
 90
        0
 40
-0.6
 41
-30.0
 62
     5
 63
     7
 74
     1
 91
        4
 64
     7
 65
   257
 75
     1
175
     1
 42
1.0
 92
        0
 66
   257
 43
1.0
 76
     1
 77
     6
 78
     2
 67
     7
 79
     5
170
     0
171
     0
290
     0
174
     0
 93
        1
 44
0.0
173
     0
291
     0
 45
0.0
1001
ACAD
1000
AcDbSavedByObjectVersion
1070
     0
  0
VISUALSTYLE
  5
9E
102
{ACAD_XDICTIONARY
360
843
102
}
102
{ACAD_REACTORS
330
99
102
}
330
99
100
AcDbVisualStyle
  2

 70
     7
 71
     1
 72
     0
 73
     1
 90
        0
 40
-0.6
 41
-30.0
 62
     5
 63
     7
 74
     0
 91
        4
 64
     7
 65
   257
 75
     1
175
     1
 42
1.0
 92
        8
 66
     7
 43
1.0
 76
     1
 77
     6
 78
     2
 67
     7
 79
     5
170
     0
171
     0
290
     0
174
     0
 93
        1
 44
0.0
173
     0
291
     1
 45
0.0
1001
ACAD
1000
AcDbSavedByObjectVersion
1070
     0
  0
VISUALSTYLE
  5
A5
102
{ACAD_XDICTIONARY
360
851
102
}
102
{ACAD_REACTORS
330
99
102
}
330
99
100
AcDbVisualStyle
  2

 70
    12
 71
     2
 72
     2
 73
     1
 90
        0
 40
-0.6
 41
-30.0
 62
     5
 63
     7
 74
     1
 91
        4
 64
     7
 65
   257
 75
     1
175
     1
 42
1.0
 92
        8
 66
     7
 43
1.0
 76
     1
 77
     6
 78
     2
 67
     7
 79
     5
170
     0
171
     0
290
     0
174
     0
 93
        1
 44
50.0
173
     0
291
     1
 45
0.0
1001
ACAD
1000
AcDbSavedByObjectVersion
1070
     0
  0
VISUALSTYLE
  5
A9
102
{ACAD_XDICTIONARY
360
859
102
}
102
{ACAD_REACTORS
330
99
102
}
330
99
100
AcDbVisualStyle
  2

 70
    16
 71
     2
 72
     2
 73
     3
 90
        0
 40
-0.6
 41
-30.0
 62
     5
 63
     8
 74
     1
 91
        4
 64
     7
 65
   257
 75
     1
175
     1
 42
1.0
 92
        8
 66
     8
 43
1.0
 76
     1
 77
     6
 78
     2
 67
     7
 79
     5
170
     0
171
     0
290
     0
174
     0
 93
        1
 44
0.0
173
     0
291
     1
 45
0.0
1001
ACAD
1000
AcDbSavedByObjectVersion
1070
     0
  0
VISUALSTYLE
  5
A2
102
{ACAD_XDICTIONARY
360
84B
102
}
102
{ACAD_REACTORS
330
99
102
}
330
99
100
AcDbVisualStyle
  2

 70
     9
 71
     3
 72
     2
 73
     1
 90
        0
 40
-0.6
 41
-30.0
 62
     5
 63
     7
 74
     2
 91
        2
 64
     7
 65
   257
 75
     1
175
     1
 42
40.0
 92
        8
 66
     7
 43
1.0
 76
     1
 77
     6
 78
     2
 67
     7
 79
     3
170
     0
171
     0
290
     0
174
     0
 93
        1
 44
0.0
173
     0
291
     0
 45
0.0
1001
ACAD
1000
AcDbSavedByObjectVersion
1070
     0
  0
VISUALSTYLE
  5
A4
102
{ACAD_XDICTIONARY
360
84F
102
}
102
{ACAD_REACTORS
330
99
102
}
330
99
100
AcDbVisualStyle
  2

 70
    11
 71
     2
 72
     2
 73
     1
 90
        0
 40
-0.6
 41
-30.0
 62
     5
 63
     7
 74
     1
 91
        4
 64
     7
 65
   257
 75
     1
175
     1
 42
1.0
 92
        8
 66
     7
 43
1.0
 76
     1
 77
     6
 78
     2
 67
     7
 79
     5
170
     0
171
     0
290
     0
174
     0
 93
        1
 44
-50.0
173
     0
291
     1
 45
0.0
1001
ACAD
1000
AcDbSavedByObjectVersion
1070
     0
  0
VISUALSTYLE
  5
175
102
{ACAD_XDICTIONARY
360
85F
102
}
102
{ACAD_REACTORS
330
99
102
}
330
99
100
AcDbVisualStyle
  2

 70
    22
 71
     2
 72
     2
 73
     0
 90
        0
 40
-0.6
 41
-30.0
 62
     5
 63
     7
 74
     1
 91
        4
 64
     7
 65
   257
 75
     1
175
     1
 42
1.0
 92
        8
 66
     7
 43
1.0
 76
     1
 77
     6
 78
     2
 67
     7
 79
     5
170
     0
171
     0
290
     0
174
     0
 93
        1
 44
0.0
173
     0
291
     1
 45
0.0
1001
ACAD
1000
AcDbSavedByObjectVersion
1070
     0
  0
VISUALSTYLE
  5
A8
102
{ACAD_XDICTIONARY
360
857
102
}
102
{ACAD_REACTORS
330
99
102
}
330
99
100
AcDbVisualStyle
  2

 70
    15
 71
     2
 72
     2
 73
     1
 90
        0
 40
-0.6
 41
-30.0
 62
     5
 63
     7
 74
     1
 91
        4
 64
     7
 65
   257
 75
     1
175
     1
 42
1.0
 92
        8
 66
     7
 43
1.0
 76
     1
 77
     6
 78
     2
 67
     7
 79
     5
170
     0
171
     0
290
     0
174
     0
 93
        1
 44
0.0
173
     0
291
     1
 45
0.0
1001
ACAD
1000
AcDbSavedByObjectVersion
1070
     0
  0
VISUALSTYLE
  5
9A
102
{ACAD_XDICTIONARY
360
83B
102
}
102
{ACAD_REACTORS
330
99
102
}
330
99
100
AcDbVisualStyle
  2

 70
     0
 71
     2
 72
     1
 73
     1
 90
        2
 40
-0.6
 41
30.0
 62
     5
 63
     7
 74
     0
 91
        0
 64
     7
 65
   257
 75
     1
175
     1
 42
1.0
 92
        8
 66
     7
 43
1.0
 76
     1
 77
     6
 78
     2
 67
     7
 79
     5
170
     0
171
     0
290
     0
174
     0
 93
       13
 44
0.0
173
     0
291
     1
 45
0.0
1001
ACAD
1000
AcDbSavedByObjectVersion
1070
     0
  0
VISUALSTYLE
  5
9B
102
{ACAD_XDICTIONARY
360
83D
102
}
102
{ACAD_REACTORS
330
99
102
}
330
99
100
AcDbVisualStyle
  2

 70
     1
 71
     2
 72
     1
 73
     1
 90
        2
 40
-0.6
 41
30.0
 62
     5
 63
     7
 74
     1
 91
        0
 64
     7
 65
   257
 75
     1
175
     1
 42
1.0
 92
        0
 66
   257
 43
1.0
 76
     1
 77
     6
 78
     2
 67
     7
 79
     5
170
     0
171
     0
290
     0
174
     0
 93
       13
 44
0.0
173
     0
291
     1
 45
0.0
1001
ACAD
1000
AcDbSavedByObjectVersion
1070
     0
  0
VISUALSTYLE
  5
9C
102
{ACAD_XDICTIONARY
360
83F
102
}
102
{ACAD_REACTORS
330
99
102
}
330
99
100
AcDbVisualStyle
  2

 70
     2
 71
     2
 72
     2
 73
     1
 90
        2
 40
-0.6
 41
30.0
 62
     5
 63
     7
 74
     0
 91
        0
 64
     7
 65
   257
 75
     1
175
     1
 42
1.0
 92
        0
 66
     7
 43
1.0
 76
     1
 77
     6
 78
     2
 67
     7
 79
     5
170
     0
171
     0
290
     0
174
     0
 93
       13
 44
0.0
173
     0
291
     1
 45
0.0
1001
ACAD
1000
AcDbSavedByObjectVersion
1070
     0
  0
VISUALSTYLE
  5
9D
102
{ACAD_XDICTIONARY
360
841
102
}
102
{ACAD_REACTORS
330
99
102
}
330
99
100
AcDbVisualStyle
  2

 70
     3
 71
     2
 72
     2
 73
     1
 90
        2
 40
-0.6
 41
30.0
 62
     5
 63
     7
 74
     1
 91
        0
 64
     7
 65
   257
 75
     1
175
     1
 42
1.0
 92
        0
 66
   257
 43
1.0
 76
     1
 77
     6
 78
     2
 67
     7
 79
     5
170
     0
171
     0
290
     0
174
     0
 93
       13
 44
0.0
173
     0
291
     1
 45
0.0
1001
ACAD
1000
AcDbSavedByObjectVersion
1070
     0
  0
VISUALSTYLE
  5
A1
102
{ACAD_XDICTIONARY
360
849
102
}
102
{ACAD_REACTORS
330
99
102
}
330
99
100
AcDbVisualStyle
  2

 70
     6
 71
     1
 72
     2
 73
     2
 90
        0
 40
-0.6
 41
-30.0
 62
     5
 63
     7
 74
     2
 91
        2
 64
     7
 65
   257
 75
     2
175
     1
 42
40.0
 92
        0
 66
   257
 43
1.0
 76
     1
 77
     6
 78
     2
 67
     7
 79
     3
170
     0
171
     0
290
     0
174
     0
 93
        1
 44
0.0
173
     0
291
     0
 45
0.0
1001
ACAD
1000
AcDbSavedByObjectVersion
1070
     0
  0
VISUALSTYLE
  5
173
102
{ACAD_XDICTIONARY
360
85B
102
}
102
{ACAD_REACTORS
330
99
102
}
330
99
100
AcDbVisualStyle
  2

 70
    20
 71
     2
 72
     2
 73
     0
 90
        0
 40
-0.6
 41
-30.0
 62
     5
 63
     7
 74
     1
 91
        4
 64
     7
 65
   257
 75
     1
175
     1
 42
1.0
 92
       10
 66
     7
 43
1.0
 76
     1
 77
     6
 78
     2
 67
     7
 79
     5
170
     0
171
     0
290
     0
174
     0
 93
        1
 44
0.0
173
     0
291
     1
 45
0.0
1001
ACAD
1000
AcDbSavedByObjectVersion
1070
     0
  0
VISUALSTYLE
  5
A7
102
{ACAD_XDICTIONARY
360
855
102
}
102
{ACAD_REACTORS
330
99
102
}
330
99
100
AcDbVisualStyle
  2

 70
    14
 71
     2
 72
     2
 73
     1
 90
        0
 40
-0.6
 41
-30.0
 62
     5
 63
     7
 74
     1
 91
        4
 64
     7
 65
   257
 75
     7
175
     7
 42
1.0
 92
        8
 66
     7
 43
1.0
 76
     1
 77
     6
 78
     2
 67
     7
 79
     5
170
     0
171
     0
290
     0
174
     0
 93
        1
 44
0.0
173
     0
291
     1
 45
0.0
1001
ACAD
1000
AcDbSavedByObjectVersion
1070
     0
  0
VISUALSTYLE
  5
174
102
{ACAD_XDICTIONARY
360
85D
102
}
102
{ACAD_REACTORS
330
99
102
}
330
99
100
AcDbVisualStyle
  2

 70
    21
 71
     2
 72
     2
 73
     0
 90
        0
 40
-0.6
 41
-30.0
 62
     5
 63
     7
 74
     1
 91
        4
 64
     7
 65
   257
 75
     1
175
     1
 42
1.0
 92
        9
 66
     7
 43
1.0
 76
     1
 77
     6
 78
     2
 67
     7
 79
     5
170
     0
171
     0
290
     0
174
     0
 93
        1
 44
0.0
173
     0
291
     1
 45
0.0
1001
ACAD
1000
AcDbSavedByObjectVersion
1070
     0
  0
VISUALSTYLE
  5
A3
102
{ACAD_XDICTIONARY
360
84D
102
}
102
{ACAD_REACTORS
330
99
102
}
330
99
100
AcDbVisualStyle
  2

 70
     8
 71
     2
 72
     3
 73
     0
 90
        2
 40
-0.6
 41
30.0
 62
     5
 63
     7
 74
     0
 91
        0
 64
     7
 65
   257
 75
     1
175
     1
 42
1.0
 92
        8
 66
   257
 43
1.0
 76
     1
 77
     6
 78
     2
 67
     7
 79
     3
170
     0
171
     0
290
     0
174
     0
 93
       13
 44
0.0
173
     0
291
     0
 45
0.0
1001
ACAD
1000
AcDbSavedByObjectVersion
1070
     0
  0
VISUALSTYLE
  5
182
102
{ACAD_XDICTIONARY
360
869
102
}
102
{ACAD_REACTORS
330
99
102
}
330
99
100
AcDbVisualStyle
  2

 70
    27
 71
     2
 72
     2
 73
     1
 90
        2
 40
-0.6
 41
30.0
 62
     5
 63
     7
 74
     0
 91
        4
 64
     7
 65
   257
 75
     1
175
     1
 42
1.0
 92
        8
 66
   257
 43
1.0
 76
     1
 77
     6
 78
     2
 67
     8
 79
     3
170
     0
171
     0
290
     0
174
     0
 93
        5
 44
0.0
173
     0
291
     0
 45
0.0
1001
ACAD
1000
AcDbSavedByObjectVersion
1070
     0
  0
VISUALSTYLE
  5
181
102
{ACAD_XDICTIONARY
360
867
102
}
102
{ACAD_REACTORS
330
99
102
}
330
99
100
AcDbVisualStyle
  2

 70
    26
 71
     2
 72
     2
 73
     1
 90
        2
 40
-0.6
 41
30.0
 62
     5
 63
     7
 74
     1
 91
       10
 64
     7
 65
   257
 75
     2
175
     1
 42
1.0
 92
        8
 66
   257
 43
1.0
 76
     1
 77
     6
 78
     2
 67
     7
 79
     3
170
     0
171
     0
290
     0
174
     0
 93
        5
 44
0.0
173
     0
291
     0
 45
0.0
1001
ACAD
1000
AcDbSavedByObjectVersion
1070
     0
  0
VISUALSTYLE
  5
17E
102
{ACAD_XDICTIONARY
360
861
102
}
102
{ACAD_REACTORS
330
99
102
}
330
99
100
AcDbVisualStyle
  2

 70
    23
 71
     2
 72
     2
 73
     3
 90
        0
 40
-0.6
 41
-30.0
 62
     5
 63
     7
 74
     2
 91
        2
 64
     7
 65
     7
 75
     1
175
     1
 42
40.0
 92
        8
 66
     7
 43
1.0
 76
     1
 77
     6
 78
     2
 67
     7
 79
     3
170
     0
171
     0
290
     0
174
     0
 93
        1
 44
0.0
173
     0
291
     0
 45
0.0
1001
ACAD
1000
AcDbSavedByObjectVersion
1070
     0
  0
VISUALSTYLE
  5
17F
102
{ACAD_XDICTIONARY
360
863
102
}
102
{ACAD_REACTORS
330
99
102
}
330
99
100
AcDbVisualStyle
  2

 70
    24
 71
     1
 72
     2
 73
     2
 90
        0
 40
-0.6
 41
-30.0
 62
     5
 63
     7
 74
     2
 91
        2
 64
     7
 65
     7
 75
     1
175
     1
 42
40.0
 92
       11
 66
     7
 43
1.0
 76
     1
 77
     6
 78
     2
 67
     7
 79
     6
170
     0
171
     0
290
     0
174
     0
 93
        1
 44
0.0
173
     0
291
     0
 45
0.0
1001
ACAD
1000
AcDbSavedByObjectVersion
1070
     0
  0
VISUALSTYLE
  5
A6
102
{ACAD_XDICTIONARY
360
853
102
}
102
{ACAD_REACTORS
330
99
102
}
330
99
100
AcDbVisualStyle
  2

 70
    13
 71
     2
 72
     2
 73
     1
 90
        0
 40
-0.6
 41
-30.0
 62
     5
 63
     7
 74
     1
 91
        4
 64
     7
 65
   257
 75
     1
175
     1
 42
1.0
 92
       12
 66
     7
 43
1.0
 76
     1
 77
     6
 78
     2
 67
     7
 79
     5
170
     0
171
     0
290
     0
174
     0
 93
        1
 44
0.0
173
     0
291
     1
 45
0.0
1001
ACAD
1000
AcDbSavedByObjectVersion
1070
     0
  0
VISUALSTYLE
  5
A0
102
{ACAD_XDICTIONARY
360
847
102
}
102
{ACAD_REACTORS
330
99
102
}
330
99
100
AcDbVisualStyle
  2

 70
     5
 71
     0
 72
     2
 73
     0
 90
        0
 40
-0.6
 41
-30.0
 62
     5
 63
     7
 74
     1
 91
        4
 64
     7
 65
   257
 75
     1
175
     1
 42
1.0
 92
        0
 66
   257
 43
1.0
 76
     1
 77
     6
 78
     2
 67
     7
 79
     3
170
     0
171
     0
290
     0
174
     0
 93
        1
 44
0.0
173
     0
291
     0
 45
0.0
1001
ACAD
1000
AcDbSavedByObjectVersion
1070
     0
  0
VISUALSTYLE
  5
180
102
{ACAD_XDICTIONARY
360
865
102
}
102
{ACAD_REACTORS
330
99
102
}
330
99
100
AcDbVisualStyle
  2

 70
    25
 71
     2
 72
     2
 73
     1
 90
        1
 40
0.5
 41
-30.0
 62
     5
 63
     7
 74
     1
 91
        0
 64
     7
 65
   257
 75
     1
175
     1
 42
1.0
 92
        8
 66
     7
 43
1.0
 76
     1
 77
     6
 78
     2
 67
     7
 79
     3
170
     0
171
     0
290
     0
174
     0
 93
       13
 44
0.0
173
     0
291
     0
 45
0.0
1001
ACAD
1000
AcDbSavedByObjectVersion
1070
     0
  0
DICTIONARYVAR
  5
F0
102
{ACAD_REACTORS
330
66
102
}
330
66
100
DictionaryVariables
280
     0
  1
1:1
  0
DICTIONARYVAR
  5
EF
102
{ACAD_REACTORS
330
66
102
}
330
66
100
DictionaryVariables
280
     0
  1
STANDARD
  0
DICTIONARYVAR
  5
89
102
{ACAD_REACTORS
330
66
102
}
330
66
100
DictionaryVariables
280
     0
  1
STANDARD
  0
DICTIONARYVAR
  5
1B7
102
{ACAD_REACTORS
330
66
102
}
330
66
100
DictionaryVariables
280
     0
  1
Imperial24
  0
DICTIONARYVAR
  5
1B8
102
{ACAD_REACTORS
330
66
102
}
330
66
100
DictionaryVariables
280
     0
  1
Imperial24
  0
DICTIONARYVAR
  5
67
102
{ACAD_REACTORS
330
66
102
}
330
66
100
DictionaryVariables
280
     0
  1
2
  0
DICTIONARYVAR
  5
6B
102
{ACAD_REACTORS
330
66
102
}
330
66
100
DictionaryVariables
280
     0
  1
1
  0
DICTIONARYVAR
  5
77C
102
{ACAD_REACTORS
330
66
102
}
330
66
100
DictionaryVariables
280
     0
  1
0
  0
DICTIONARYVAR
  5
14D
102
{ACAD_REACTORS
330
66
102
}
330
66
100
DictionaryVariables
280
     0
  1
0
  0
DICTIONARYVAR
  5
14E
102
{ACAD_REACTORS
330
66
102
}
330
66
100
DictionaryVariables
280
     0
  1
0
  0
DICTIONARYVAR
  5
77A
102
{ACAD_REACTORS
330
66
102
}
330
66
100
DictionaryVariables
280
     0
  1
2
  0
DICTIONARYVAR
  5
779
102
{ACAD_REACTORS
330
66
102
}
330
66
100
DictionaryVariables
280
     0
  1
1
  0
DICTIONARYVAR
  5
77B
102
{ACAD_REACTORS
330
66
102
}
330
66
100
DictionaryVariables
280
     0
  1
127
  0
DICTIONARYVAR
  5
82D
102
{ACAD_REACTORS
330
66
102
}
330
66
100
DictionaryVariables
280
     0
  1
2
  0
VLO-VL
  5
1D3
102
{ACAD_REACTORS
330
1D2
102
}
330
1D2
100
vlo_VL
 90
   -64512
 91
       12
 92
        1
 40
2.5
300
(&VLO-R . 0)
  0
DICTIONARY
  5
482
102
{ACAD_REACTORS
330
481
102
}
330
481
100
AcDbDictionary
281
     1
  0
DICTIONARY
  5
487
102
{ACAD_REACTORS
330
486
102
}
330
486
100
AcDbDictionary
281
     1
  0
DICTIONARY
  5
48C
102
{ACAD_REACTORS
330
48B
102
}
330
48B
100
AcDbDictionary
281
     1
  0
DICTIONARY
  5
491
102
{ACAD_REACTORS
330
490
102
}
330
490
100
AcDbDictionary
281
     1
  0
DICTIONARY
  5
496
102
{ACAD_REACTORS
330
495
102
}
330
495
100
AcDbDictionary
281
     1
  0
DICTIONARY
  5
49B
102
{ACAD_REACTORS
330
49A
102
}
330
49A
100
AcDbDictionary
281
     1
  0
DICTIONARY
  5
4A0
102
{ACAD_REACTORS
330
49F
102
}
330
49F
100
AcDbDictionary
281
     1
  0
DICTIONARY
  5
4A5
102
{ACAD_REACTORS
330
4A4
102
}
330
4A4
100
AcDbDictionary
281
     1
  0
DICTIONARY
  5
4AA
102
{ACAD_REACTORS
330
4A9
102
}
330
4A9
100
AcDbDictionary
281
     1
  0
DICTIONARY
  5
4AF
102
{ACAD_REACTORS
330
4AE
102
}
330
4AE
100
AcDbDictionary
281
     1
  0
DICTIONARY
  5
4B4
102
{ACAD_REACTORS
330
4B3
102
}
330
4B3
100
AcDbDictionary
281
     1
  0
DICTIONARY
  5
4B9
102
{ACAD_REACTORS
330
4B8
102
}
330
4B8
100
AcDbDictionary
281
     1
  0
DICTIONARY
  5
4BE
102
{ACAD_REACTORS
330
4BD
102
}
330
4BD
100
AcDbDictionary
281
     1
  0
DICTIONARY
  5
4C3
102
{ACAD_REACTORS
330
4C2
102
}
330
4C2
100
AcDbDictionary
281
     1
  0
DICTIONARY
  5
4C8
102
{ACAD_REACTORS
330
4C7
102
}
330
4C7
100
AcDbDictionary
281
     1
  0
DICTIONARY
  5
4CD
102
{ACAD_REACTORS
330
4CC
102
}
330
4CC
100
AcDbDictionary
281
     1
  0
DICTIONARY
  5
4D2
102
{ACAD_REACTORS
330
4D1
102
}
330
4D1
100
AcDbDictionary
281
     1
  0
DICTIONARY
  5
4D7
102
{ACAD_REACTORS
330
4D6
102
}
330
4D6
100
AcDbDictionary
281
     1
  0
DICTIONARY
  5
4DC
102
{ACAD_REACTORS
330
4DB
102
}
330
4DB
100
AcDbDictionary
281
     1
  0
DICTIONARY
  5
4E1
102
{ACAD_REACTORS
330
4E0
102
}
330
4E0
100
AcDbDictionary
281
     1
  0
DICTIONARY
  5
4E6
102
{ACAD_REACTORS
330
4E5
102
}
330
4E5
100
AcDbDictionary
281
     1
  0
DICTIONARY
  5
4EB
102
{ACAD_REACTORS
330
4EA
102
}
330
4EA
100
AcDbDictionary
281
     1
  0
DICTIONARY
  5
4F0
102
{ACAD_REACTORS
330
4EF
102
}
330
4EF
100
AcDbDictionary
281
     1
  0
DICTIONARY
  5
4F5
102
{ACAD_REACTORS
330
4F4
102
}
330
4F4
100
AcDbDictionary
281
     1
  0
DICTIONARY
  5
4FA
102
{ACAD_REACTORS
330
4F9
102
}
330
4F9
100
AcDbDictionary
281
     1
  0
DICTIONARY
  5
4FF
102
{ACAD_REACTORS
330
4FE
102
}
330
4FE
100
AcDbDictionary
281
     1
  0
DICTIONARY
  5
504
102
{ACAD_REACTORS
330
503
102
}
330
503
100
AcDbDictionary
281
     1
  0
DICTIONARY
  5
509
102
{ACAD_REACTORS
330
508
102
}
330
508
100
AcDbDictionary
281
     1
  0
DICTIONARY
  5
50E
102
{ACAD_REACTORS
330
50D
102
}
330
50D
100
AcDbDictionary
281
     1
  0
DICTIONARY
  5
514
102
{ACAD_REACTORS
330
513
102
}
330
513
100
AcDbDictionary
281
     1
  0
DICTIONARY
  5
519
102
{ACAD_REACTORS
330
518
102
}
330
518
100
AcDbDictionary
281
     1
  0
DICTIONARY
  5
51E
102
{ACAD_REACTORS
330
51D
102
}
330
51D
100
AcDbDictionary
281
     1
  0
DICTIONARY
  5
523
102
{ACAD_REACTORS
330
522
102
}
330
522
100
AcDbDictionary
281
     1
  0
DICTIONARY
  5
528
102
{ACAD_REACTORS
330
527
102
}
330
527
100
AcDbDictionary
281
     1
  0
DICTIONARY
  5
52D
102
{ACAD_REACTORS
330
52C
102
}
330
52C
100
AcDbDictionary
281
     1
  0
DICTIONARY
  5
532
102
{ACAD_REACTORS
330
531
102
}
330
531
100
AcDbDictionary
281
     1
  0
DICTIONARY
  5
53C
102
{ACAD_REACTORS
330
53B
102
}
330
53B
100
AcDbDictionary
281
     1
  0
DICTIONARY
  5
541
102
{ACAD_REACTORS
330
540
102
}
330
540
100
AcDbDictionary
281
     1
  0
DICTIONARY
  5
546
102
{ACAD_REACTORS
330
545
102
}
330
545
100
AcDbDictionary
281
     1
  0
DICTIONARY
  5
54E
102
{ACAD_REACTORS
330
54D
102
}
330
54D
100
AcDbDictionary
281
     1
  0
DICTIONARY
  5
553
102
{ACAD_REACTORS
330
552
102
}
330
552
100
AcDbDictionary
281
     1
  0
DICTIONARY
  5
558
102
{ACAD_REACTORS
330
557
102
}
330
557
100
AcDbDictionary
281
     1
  0
DICTIONARY
  5
55D
102
{ACAD_REACTORS
330
55C
102
}
330
55C
100
AcDbDictionary
281
     1
  0
DICTIONARY
  5
562
102
{ACAD_REACTORS
330
561
102
}
330
561
100
AcDbDictionary
281
     1
  0
DICTIONARY
  5
56C
102
{ACAD_REACTORS
330
56B
102
}
330
56B
100
AcDbDictionary
281
     1
  0
DICTIONARY
  5
571
102
{ACAD_REACTORS
330
570
102
}
330
570
100
AcDbDictionary
281
     1
  0
DICTIONARY
  5
576
102
{ACAD_REACTORS
330
575
102
}
330
575
100
AcDbDictionary
281
     1
  0
DICTIONARY
  5
57B
102
{ACAD_REACTORS
330
57A
102
}
330
57A
100
AcDbDictionary
281
     1
  0
DICTIONARY
  5
580
102
{ACAD_REACTORS
330
57F
102
}
330
57F
100
AcDbDictionary
281
     1
  0
DICTIONARY
  5
585
102
{ACAD_REACTORS
330
584
102
}
330
584
100
AcDbDictionary
281
     1
  0
DICTIONARY
  5
58A
102
{ACAD_REACTORS
330
589
102
}
330
589
100
AcDbDictionary
281
     1
  0
DICTIONARY
  5
58F
102
{ACAD_REACTORS
330
58E
102
}
330
58E
100
AcDbDictionary
281
     1
  0
DICTIONARY
  5
594
102
{ACAD_REACTORS
330
593
102
}
330
593
100
AcDbDictionary
281
     1
  0
DICTIONARY
  5
599
102
{ACAD_REACTORS
330
598
102
}
330
598
100
AcDbDictionary
281
     1
  0
DICTIONARY
  5
59E
102
{ACAD_REACTORS
330
59D
102
}
330
59D
100
AcDbDictionary
281
     1
  0
DICTIONARY
  5
5F4
102
{ACAD_REACTORS
330
5F3
102
}
330
5F3
100
AcDbDictionary
281
     1
  0
DICTIONARY
  5
5FA
102
{ACAD_REACTORS
330
5F9
102
}
330
5F9
100
AcDbDictionary
281
     1
  0
DICTIONARY
  5
606
102
{ACAD_REACTORS
330
605
102
}
330
605
100
AcDbDictionary
281
     1
  0
DICTIONARY
  5
60C
102
{ACAD_REACTORS
330
60B
102
}
330
60B
100
AcDbDictionary
281
     1
  0
DICTIONARY
  5
612
102
{ACAD_REACTORS
330
611
102
}
330
611
100
AcDbDictionary
281
     1
  0
DICTIONARY
  5
618
102
{ACAD_REACTORS
330
617
102
}
330
617
100
AcDbDictionary
281
     1
  0
DICTIONARY
  5
61E
102
{ACAD_REACTORS
330
61D
102
}
330
61D
100
AcDbDictionary
281
     1
  0
DICTIONARY
  5
625
102
{ACAD_REACTORS
330
624
102
}
330
624
100
AcDbDictionary
281
     1
  0
DICTIONARY
  5
62B
102
{ACAD_REACTORS
330
62A
102
}
330
62A
100
AcDbDictionary
281
     1
  0
DICTIONARY
  5
63C
102
{ACAD_REACTORS
330
63B
102
}
330
63B
100
AcDbDictionary
281
     1
  0
DICTIONARY
  5
86D
330
1AC
100
AcDbDictionary
280
     1
281
     1
  3
ACAD_XREC_ROUNDTRIP
360
86E
  0
DICTIONARY
  5
834
330
22
100
AcDbDictionary
280
     1
281
     1
  3
ACAD_XREC_ROUNDTRIP
360
835
  0
DICTIONARY
  5
836
330
59
100
AcDbDictionary
280
     1
281
     1
  3
ACAD_XREC_ROUNDTRIP
360
837
  0
DICTIONARY
  5
838
330
5E
100
AcDbDictionary
280
     1
281
     1
  3
ACAD_XREC_ROUNDTRIP
360
839
  0
DICTIONARY
  5
188
330
97
100
AcDbDictionary
280
     1
281
     1
  3
ACAD_XREC_ROUNDTRIP
360
795
  3
FBXASSET
360
189
  0
DICTIONARY
  5
186
330
96
100
AcDbDictionary
280
     1
281
     1
  3
ACAD_XREC_ROUNDTRIP
360
794
  3
FBXASSET
360
187
  0
DICTIONARY
  5
110
330
98
100
AcDbDictionary
280
     1
281
     1
  3
ACAD_XREC_ROUNDTRIP
360
796
  3
BUMPTILE
360
112
  3
DIFFUSETILE
360
111
  3
FBXASSET
360
18A
  3
OPACITYTILE
360
113
  3
REFLECTIONTILE
360
114
  0
DICTIONARY
  5
86B
330
1AA
100
AcDbDictionary
280
     1
281
     1
  3
ACAD_XREC_ROUNDTRIP
360
86C
  0
DICTIONARY
  5
104
330
87
100
AcDbDictionary
280
     1
281
     1
  3
ACAD_ROUNDTRIP_2008_TABLESTYLE_CELLSTYLEMAP
360
82E
  3
ACAD_XREC_ROUNDTRIP
360
83A
  0
DICTIONARY
  5
845
330
9F
100
AcDbDictionary
280
     1
281
     1
  3
ACAD_XREC_ROUNDTRIP
360
846
  0
DICTIONARY
  5
86F
330
263
100
AcDbDictionary
280
     1
281
     1
  3
ACAD_XREC_ROUNDTRIP
360
870
  0
DICTIONARY
  5
843
330
9E
100
AcDbDictionary
280
     1
281
     1
  3
ACAD_XREC_ROUNDTRIP
360
844
  0
DICTIONARY
  5
851
330
A5
100
AcDbDictionary
280
     1
281
     1
  3
ACAD_XREC_ROUNDTRIP
360
852
  0
DICTIONARY
  5
859
330
A9
100
AcDbDictionary
280
     1
281
     1
  3
ACAD_XREC_ROUNDTRIP
360
85A
  0
DICTIONARY
  5
84B
330
A2
100
AcDbDictionary
280
     1
281
     1
  3
ACAD_XREC_ROUNDTRIP
360
84C
  0
DICTIONARY
  5
84F
330
A4
100
AcDbDictionary
280
     1
281
     1
  3
ACAD_XREC_ROUNDTRIP
360
850
  0
DICTIONARY
  5
85F
330
175
100
AcDbDictionary
280
     1
281
     1
  3
ACAD_XREC_ROUNDTRIP
360
860
  0
DICTIONARY
  5
857
330
A8
100
AcDbDictionary
280
     1
281
     1
  3
ACAD_XREC_ROUNDTRIP
360
858
  0
DICTIONARY
  5
83B
330
9A
100
AcDbDictionary
280
     1
281
     1
  3
ACAD_XREC_ROUNDTRIP
360
83C
  0
DICTIONARY
  5
83D
330
9B
100
AcDbDictionary
280
     1
281
     1
  3
ACAD_XREC_ROUNDTRIP
360
83E
  0
DICTIONARY
  5
83F
330
9C
100
AcDbDictionary
280
     1
281
     1
  3
ACAD_XREC_ROUNDTRIP
360
840
  0
DICTIONARY
  5
841
330
9D
100
AcDbDictionary
280
     1
281
     1
  3
ACAD_XREC_ROUNDTRIP
360
842
  0
DICTIONARY
  5
849
330
A1
100
AcDbDictionary
280
     1
281
     1
  3
ACAD_XREC_ROUNDTRIP
360
84A
  0
DICTIONARY
  5
85B
330
173
100
AcDbDictionary
280
     1
281
     1
  3
ACAD_XREC_ROUNDTRIP
360
85C
  0
DICTIONARY
  5
855
330
A7
100
AcDbDictionary
280
     1
281
     1
  3
ACAD_XREC_ROUNDTRIP
360
856
  0
DICTIONARY
  5
85D
330
174
100
AcDbDictionary
280
     1
281
     1
  3
ACAD_XREC_ROUNDTRIP
360
85E
  0
DICTIONARY
  5
84D
330
A3
100
AcDbDictionary
280
     1
281
     1
  3
ACAD_XREC_ROUNDTRIP
360
84E
  0
DICTIONARY
  5
869
330
182
100
AcDbDictionary
280
     1
281
     1
  3
ACAD_XREC_ROUNDTRIP
360
86A
  0
DICTIONARY
  5
867
330
181
100
AcDbDictionary
280
     1
281
     1
  3
ACAD_XREC_ROUNDTRIP
360
868
  0
DICTIONARY
  5
861
330
17E
100
AcDbDictionary
280
     1
281
     1
  3
ACAD_XREC_ROUNDTRIP
360
862
  0
DICTIONARY
  5
863
330
17F
100
AcDbDictionary
280
     1
281
     1
  3
ACAD_XREC_ROUNDTRIP
360
864
  0
DICTIONARY
  5
853
330
A6
100
AcDbDictionary
280
     1
281
     1
  3
ACAD_XREC_ROUNDTRIP
360
854
  0
DICTIONARY
  5
847
330
A0
100
AcDbDictionary
280
     1
281
     1
  3
ACAD_XREC_ROUNDTRIP
360
848
  0
DICTIONARY
  5
865
330
180
100
AcDbDictionary
280
     1
281
     1
  3
ACAD_XREC_ROUNDTRIP
360
866
  0
XRECORD
  5
86E
102
{ACAD_REACTORS
330
86D
102
}
330
86D
100
AcDbXrecord
280
     1
102
DISPLAYNAME
  1
Imperial24
102
FLAGS
 90
        0
  0
XRECORD
  5
835
102
{ACAD_REACTORS
330
834
102
}
330
834
100
AcDbXrecord
280
     1
102
SHADEPLOT
 70
     0
102
SHADEPLOTRESLEVEL
 70
     2
102
SHADEPLOTCUSTOMDPI
 70
   300
  0
XRECORD
  5
837
102
{ACAD_REACTORS
330
836
102
}
330
836
100
AcDbXrecord
280
     1
102
SHADEPLOT
 70
     0
102
SHADEPLOTRESLEVEL
 70
     2
102
SHADEPLOTCUSTOMDPI
 70
   300
  0
XRECORD
  5
839
102
{ACAD_REACTORS
330
838
102
}
330
838
100
AcDbXrecord
280
     1
102
SHADEPLOT
 70
     0
102
SHADEPLOTRESLEVEL
 70
     2
102
SHADEPLOTCUSTOMDPI
 70
   300
  0
XRECORD
  5
795
102
{ACAD_REACTORS
330
188
102
}
330
188
100
AcDbXrecord
280
     1
102
MATERIAL
148
0.0
149
0.0
149
0.0
 93
        0
 94
      127
282
     0
 72
     1
 77
     1
171
     1
175
     1
179
     1
273
     0
  0
XRECORD
  5
189
102
{ACAD_REACTORS
330
188
102
}
330
188
100
AcDbXrecord
280
     1
 70
     1
 90
429727718
  1
508B35C9-AEE7-456F-BE74-D52651303AC6
310
504B03040A0000080000B670623B3DEE336E79000000790000001B0000006175746F6465736B2D64657369676E2D7061636B6167652E786D6C3C3F786D6C2076657273696F6E3D22312E302220656E636F64696E673D227574662D3822203F3E3C666F726D6174733E3C666F726D61743E687474703A2F2F736368656D612E
310
6175746F6465736B2E636F6D2F64657369676E2D7061636B6167652F323030393C2F666F726D61743E3C2F666F726D6174733E504B0304140006080800B670623BD486FD9CA0000000F4000000130000005B436F6E74656E745F54797065735D2E786D6C7D8EC10E82300C865F65E91D8A1E8C310C0EEA1BF002731658846E
310
D98AC1B77784ABF1D8FE5FBFBF75BBCE937A534CCEB38643598122B6FEE978D0B0485F9C41B54DDD7D022595594E1A469170414C76A4D9A4D207E29CF43ECE46F218070CC6BECC4078ACAA135ACF422C856C0E68EA1BF5669944DDD7BCDE7B1F8E415D77AECB980613C2E4AC91FC167A2B244592486606FC29C8FD7F045B9A
310
EF7053A7E60B504B0304140006080800B670623B28ED286BEB0000007C01000008000000636F72652E786D6C8D90416EC3201045AF82665B6183218D6D61A254764FD00B204C5C94182C03558F5F9C3852BBEB6A467FFE9B197D71FA9E6FE8CBACC17AD7012D0820E3B41FAD9B3A48F1826B40272956EFE32F1B20A766D3C1
310
268314D3EAD3B24BDABB685CCCAAF3A3D94515828980F42D371D04FD696655A814B3235C8B45E9AB9A4C419F5D8653B2237A1CB163DE672FD6AC209BF3C08E0D1B30EB19C3FC9D72FCC6EB231EFA33EDE96BDD341517E5064B11EDFCBCAF57A3A2194156843498524CAA0FCA5B7268F9E185D42D21A2DCEC7FA0B48CFF8492
310
759155FBBB0F2C80A4F991FB408A72CB22977B50B96EB9C91F504B0304140006080800B670623B55019EA25F0000007C00000007000000636E782E786D6C4DCB3B0E80201045D1AD90E915ED2CF8AC45050C11660C8261F98AB1B07AC9C97D42D718D865D3E909258CFD00CCE24AC6E326A164D74DC0B4128928FF32603847
310
2BA13128B1252AC747C6BAB984FC68F0B87FE8960A5C09FE86CFB69FBA01504B0304140006080800B670623B7BC41AC871010000D40300000C0000006662782F636F72652E786D6CC553ED6E8320147D15C2DF4501B56B6D90A64BBB27D80B50A5CE54C120983EFEAE1F4DD7A56BBA5FF3879273EEE59E7310BE393735EA95
310
ED2AA333CC428A91D2B9292A5D66D8BB63B0C26823B835C67D2BC348CB46657880B1E0A535BE9DA1DC68A7B403549B42CDA0EC3AE530CA6B5864B8CB3F552343E91D5474A7B095F949962A6421D0502778E72C0840D390E18DC5F170E664C205F7BE2A66B62A605A75AC94C522DDEEE3651AEF837817C741F2CE92E02D592D
310
83FD6ECB76EC7595A651C2C9D02CB8AB9A8BBADC2AE954814544691A3016D0E883256BBA58278B17BA5A53CAC9507ED3E4DBE2C9265F691747B3DCA9ADC382819091F8E1162272A8933DE82182932144F88C09DF060D8140C84E1EEA8B8F1340BDCA9DB1093085F157AA97B557309586747CD0EF0B4EA64E983A6E0EAEEFCE
310
889E9EF17847386AA94B30211D2C0FDE0D3AF9A4610EAD5536E8DD1969631B593F67E381C33F5157F17725E5A636F6BF1491F980C8FC7B90E13E8A2F504B0304140006080800B670623B70102A487D0000009D0000000B0000006662782F636E782E786D6C4DCCD10A83201886E15B91FFDC95A5C30335ACCDFB886521330D
310
A76397BF1A1DECE883878F57749FD5A3B74D2F17830472A901D9F088930B8B849267CC01754AA418F3DF0D5018572BE160506249B16C274D761E8BCFBB7A179E27F65CB39A0F14D396184C9921B81F34C3ACA1B4B99ABB6E6F062A25AA5F69DF23ACBE504B0304140006080800B670623B3610CA3329010000120200003100
310
00006662782F42384135303843342D343331462D343546312D424341352D3532343432364645413344462F636F72652E786D6C8D515B6EC32010BC0AE22B55850D0E446E848992B43E412FE000495162B07854397EA176A4F62F3F2C9A9D991D58BEBB8F37F0AD7D30CE76905418026DA553C65E3A98E219B510EC04F7CEC5
310
3F3408EC30EA0E16180A7EF12E4D0B249D8DDAC68C5AA7F4020E21E80881BCE54B0783FCD2E3500D296646B856D320AFC34557A4CAEDCC133C449F0380794839A138B47B86DB2345744D7A44594FD0E1B867883594369BFE63BF7EEF793D0B054FC9A8456E548E63CE46FB674D8A58F068C6477CE9F510B582A2C1F80D1182
310
70F349E816B32D65AFB8DD62CCEB42FF274A937A52948C8DEB66893BCB021484D7734370E5D2E9F608A3EF93F3119479ABA0E50B14B8C298119A43CCC4FCFCECB8A18B6388CEE7EF5D5D4F994BD86CBBA182D76543B9FCAE2FD7B24DF103504B0304140006080800B670623B1B8617914E0100003303000030000000666278
310
2F42384135303843342D343331462D343546312D424341352D3532343432364645413344462F636E782E786D6CD593C16EC32010447F0571AD6CE3D489D20813A9877E410FBD62D82434182CC055F3F75D1292E692438FBD206B7698593D61BEFD1E2DF982108D773D6D6B460938E5B571FB9ECE6957AD29D90A1EBC4F7736
310
4A9C1CA1A759A682EF839FA72269D8C9D92654AD71C72206887E0E0A22CAF926B15E498B01E0AA19451807D01A34B919F16B070157417138917400F2F6FA41FCF0092A45DEE414C19BDC21783E4BD39D891265658C3D8DEA00A3ACE59CBC8678ACB54CB26EEB6BD7839D7E9348BE70AD9C8321B9BCA7F9A4A26C542347DEE0
310
50F09802D22BA6749A800A394DD62899107273365E3C82CFC6A55557BC06C10774B7ABE7AEC3B0F34CF06446280E154026D0542C187BA9DAB6628BF7B6DBB0E5A65B3EB1F58631DE64BBE083F7B65CC218087E22CABB042E51D1F2268F1FE12B3EA24D40D63E9CFE00120194D60B9D5BC67FE6D39CDF37E20AF817881F504B
310
0304140006080800B670623BBFEF2E3B690500003C100000340000006662782F42384135303843342D343331462D343546312D424341352D3532343432364645413344462F6F626A656374732E786D6CAD575D739B3814FD2B0CFB0C98D84E931D4227B6938EA793B6534F3BFB90198F0099B001899144EAECAFDF231018B0
310
D37A3FFC609090EEE7B94757C1FB7D915B2F54C88CB31BDB7727B64559CC938CA53776A576CE956DBD0F03C1B9EA2DB32D460A7A63EB693B0C52C1ABD24C257447AA5C8D66EF177F5832A68CDA569C13296F6C193FD182B8A4523CA1F2D94D88226EBADBBBBEDB2C1C8A4D05299F46424B222853B014F30C52ACC6287F389C
310
D85E1878FA7B18E87FB36AFAF62AAFF667A83F635211161F291B8999FAB3D5DDC5FCDA99CF6653677679E13B8BFBC5CAF1DF4D27CBCBE5F2FAF6EE1A8AA51290642C117467871F101B91C581D77CEA2C36869F3229E68CD1B8F61F1ED6361B89092D294B90C78C4A68EB793D190E7D1D9BDEE7A91E1B95FDE9F3BCEAEFE809
310
6A6D6F9F7D4B79F4275C90E7A04248AA51D5C4C738DAE06F72885AC4796EBE65D22A88A22223B995679120E2D50EB1542F098381188D4EA111AE3DB043FF20AF6F2B4AE3D7D83D65E5AECA730D4D3BAC91BD05FEA992B565D95F549CD6069B90AB2A63EACA38A45E4B6A87D781574F86817E4C2FCCC72690D62E2729520E37
310
9BAF234797BAF6D62B3BFC781FED37BA1E4F2B2F052FA9501A3E80569BB8F6A9A364D4FA67654E6F803383981F82F21591FF84F23D9882BC896C3FDBCF8C162508933B2E0AE4C69DD43F6BD2BE38DDDBF10BF86CB4FA784D37F3AF16075E67EC9030DECA1FC0A55373F5DFF3378C591FA9BDF485C10B0A8C8BA909E5262639
310
A8E72163488806A595734C81CB77D1DE0ED7604A303B76913CEC0272F412782FF88EFF4636D8AA56DF7B322474C4B767303F625997056C7B032C473C592B36CEBD15F3F9FF5233B7ABCDC74D257624A60F8658567497B14CE1EC3C80B76FD02011038F9EE9EB0F2E12387A9C844D3F09855125116D1D731DF8B43D2CF4E0A0
310
79A020C6BE946BCE0B7EA1E1219331CD73C228AF5A2DDD31A4B1DA918CE91350854D40A71723140BFA92E94E62B0626016CEFA5864A50E5977E8753CEDBEE1CBB7F52780D20E17AF0BA0F5F9B02A3AD07DCC732EB6D1EBB661421BE0C39E21BABF0FE16D22EA6929407C8DE596724C88B749B6DB5512BC7B228ADFD7CB7EA6
310
3A22397E690BA8D5D8D4E40CEC8CDA23C2C0B7D5898640101CEC9C6D331CE328CB93CAFBBAC70A642DF70DF95155945B52F08AA973C23469FD69ADEF84F7BB18F983A8F8C90E37F5D35980B2139A1C523540813E824EF83448CF7C72B598CE97D7CEEDDDDD3B6736BFBC771677EF66CE6A7E7139F7A793E9EDF2B2B3A8B624
310
0CDA13AA5F8388264EC4A0129909F3B7F5A16CEDF08128E97D680ACA4B9BE7B7B58BB638F0B00700EF36AE8B32A705658A68F83EE897FC2B41573190D1CCAF0B92D233A47CFEB019D9809933F67DD1A5467F8CF69AD9A5AE859342D45355448C64F968A371DC2D596ADC6E43D93D1B466F877A64E2893E54F23C4B40388995
310
525E5005DA3983ED45412510D3EFCA13737B3863F74BD30F2A12E5B4B5E489A025CE25500DB855B11ACE5BBFA185D35DD48D8DC3CE7DC69F2944DB42AA6F6CF09BCA622ADD08C7A36E7C6AE18000BAB08E040135C2D21C9D75B3A91B77BB746C403F38018DFE6EC939DD92F16B40BC05294B9CDA035AAD6D330AE27FE4786B
310
8E45145EA34A75BE1C263A676A35A8ACC6297337400BF16C54EF515F3F77CB77EB3583889C754FFA29081AA98E2222ADEF05DA3E63D2EDEA8B8756C05A7FB6CABC4A91CBF325398202CC952E70A008A830324BA200D5E5EF8F5F04C75DB4B0EE3340E071C98B823333B83577596BF3849B69F2085AA0FAFA212F26BEFF5877
310
FDE622B28D88A42E49E43326DA82D31E8CB006401E1DA726059ECEC168F97A6599036306A135688F9AD2E61A6EA178F4CD51974A9F2CCB9F36FE5EBD14601068D9C3BF01504B0304140006080000B670623B000000000000000000000000350000006662782F42384135303843342D343331462D343546312D424341352D35
310
32343432364645413344462F76657274696365732E62696E504B0304140006080800B670623BF270F1330600000004000000360000006662782F42384135303843342D343331462D343546312D424341352D3532343432364645413344462F747269616E676C65732E62696E636660600000504B0304140006080000B67062
310
3B000000000000000000000000370000006662782F42384135303843342D343331462D343546312D424341352D3532343432364645413344462F617474726962757465732E62696E504B0304140006080800B670623B08DA0BD19000000041010000360000006662782F42384135303843342D343331462D343546312D4243
310
41352D3532343432364645413344462F6469726563746F72792E786D6C858F410AC3201045AF22B36F53E9A60B35CBEEBAE80D244E44489C6234F4F835464A48035D0DF398FF9F8AF63D0E6CC63039F212F8F9020C7D47C6792B21C5FE7403D62A1188E2E60C98D7234A5830286103A55745067B9D86B8A3CF9C7F90C11DE6
310
07FB144396D7B6A82D282E9A152AD114D5EF2CB866EEE831B8EEA07A7BB5A8D7D61A2BAAEB7FD5F70921FF497D00504B0304140006080800B670623B3B4606F3FE000000A00100003B0000006662782F42384135303843342D343331462D343546312D424341352D3532343432364645413344462F7265736F75726365732F
310
636F72652E786D6C8D504B6E833010BD0A9A6D65B08134808CA354A427E8052C332156828DFCA97AFC9A40A576D7CDCCE87D344F8F9FBEE647F689CE6B6B7A6039850C8DB2A336530F315C4903D94970676DF82583CCC8197B5861107C72362E3BA4AC096842428D1D7107A5F71820538F74F4E0D50D6799CB1892C2DFF345
310
AABB9C306779A2934E701F5C0A906D4FD609C2A1B7D129F4BCD858C163D4E3AED163FAA9AF1A1D88F67CA98E6D35906AA82A52BFB39ABCD5CD915C86331BD86BD3B665CD8BD52C78D0F34F46E550061C419494B6843142CB0F5677F4D0D58717DA7494F26295FF31C565FCA7296A13AA728FBBD93C0896823C09C18BB5AFB4
310
9E65A6BD762BBE01504B010214000A0000080000B670623B3DEE336E79000000790000001B00000000000000000000000000000000006175746F6465736B2D64657369676E2D7061636B6167652E786D6C504B01021400140006080800B670623BD486FD9CA0000000F40000001300000000000000000000000000B2000000
310
5B436F6E74656E745F54797065735D2E786D6C504B01021400140006080800B670623B28ED286BEB0000007C010000080000000000000000000000000083010000636F72652E786D6C504B01021400140006080800B670623B55019EA25F0000007C000000070000000000000000000000000094020000636E782E786D6C50
310
4B01021400140006080800B670623B7BC41AC871010000D40300000C00000000000000000000000000180300006662782F636F72652E786D6C504B01021400140006080800B670623B70102A487D0000009D0000000B00000000000000000000000000B30400006662782F636E782E786D6C504B01021400140006080800B6
310
70623B3610CA3329010000120200003100000000000000000000000000590500006662782F42384135303843342D343331462D343546312D424341352D3532343432364645413344462F636F72652E786D6C504B01021400140006080800B670623B1B8617914E010000330300003000000000000000000000000000D10600
310
006662782F42384135303843342D343331462D343546312D424341352D3532343432364645413344462F636E782E786D6C504B01021400140006080800B670623BBFEF2E3B690500003C10000034000000000000000000000000006D0800006662782F42384135303843342D343331462D343546312D424341352D35323434
310
32364645413344462F6F626A656374732E786D6C504B01021400140006080000B670623B0000000000000000000000003500000000000000000000000000280E00006662782F42384135303843342D343331462D343546312D424341352D3532343432364645413344462F76657274696365732E62696E504B010214001400
310
06080800B670623BF270F133060000000400000036000000000000000000000000007B0E00006662782F42384135303843342D343331462D343546312D424341352D3532343432364645413344462F747269616E676C65732E62696E504B01021400140006080000B670623B00000000000000000000000037000000000000
310
00000000000000D50E00006662782F42384135303843342D343331462D343546312D424341352D3532343432364645413344462F617474726962757465732E62696E504B01021400140006080800B670623B08DA0BD1900000004101000036000000000000000000000000002A0F00006662782F42384135303843342D3433
310
31462D343546312D424341352D3532343432364645413344462F6469726563746F72792E786D6C504B01021400140006080800B670623B3B4606F3FE000000A00100003B000000000000000000000000000E1000006662782F42384135303843342D343331462D343546312D424341352D3532343432364645413344462F72
310
65736F75726365732F636F72652E786D6C504B0506000000000E000E0080040000651100000000
  0
XRECORD
  5
794
102
{ACAD_REACTORS
330
186
102
}
330
186
100
AcDbXrecord
280
     1
102
MATERIAL
148
0.0
149
0.0
149
0.0
 93
        0
 94
      127
282
     0
 72
     1
 77
     1
171
     1
175
     1
179
     1
273
     0
  0
XRECORD
  5
187
102
{ACAD_REACTORS
330
186
102
}
330
186
100
AcDbXrecord
280
     1
 70
     1
 90
429727718
  1
887D55A9-D0DD-414E-B741-A7DCD4DA2B4C
310
504B03040A0000080000B670623B3DEE336E79000000790000001B0000006175746F6465736B2D64657369676E2D7061636B6167652E786D6C3C3F786D6C2076657273696F6E3D22312E302220656E636F64696E673D227574662D3822203F3E3C666F726D6174733E3C666F726D61743E687474703A2F2F736368656D612E
310
6175746F6465736B2E636F6D2F64657369676E2D7061636B6167652F323030393C2F666F726D61743E3C2F666F726D6174733E504B0304140006080800B670623BD486FD9CA0000000F4000000130000005B436F6E74656E745F54797065735D2E786D6C7D8EC10E82300C865F65E91D8A1E8C310C0EEA1BF002731658846E
310
D98AC1B77784ABF1D8FE5FBFBF75BBCE937A534CCEB38643598122B6FEE978D0B0485F9C41B54DDD7D022595594E1A469170414C76A4D9A4D207E29CF43ECE46F218070CC6BECC4078ACAA135ACF422C856C0E68EA1BF5669944DDD7BCDE7B1F8E415D77AECB980613C2E4AC91FC167A2B244592486606FC29C8FD7F045B9A
310
EF7053A7E60B504B0304140006080800B670623BBC1638F5EC0000007C01000008000000636F72652E786D6C8D90416EC3201045AF82665B61836BE2D8C24471DB9CA01740401C94182C03558F5F9C3852BBEB6A467FFE9B197D7EF89E6EE8CB2CC17AD7032D0820E394D7D68D3DA478C67B4007C117EFE32F1B202727D3C3
310
2A83E0E3E2D3BC49CABB685CCCAAF3DA6CA20CC14440EA969B1E82BA98491632C5EC08D76296EA2A4753D06797E194AC468F2356E77DF66CCD02825543D50CACC62D39ED70FDC68EB8FD68F6F8787A6784342D1DDA1D2F5758F068A7E77DB518198D065111D2624A31A93E69DD11D6D5EC85EC3B4278B9DAFF4069D6FF8492
310
75F1B5DADE7D600104CD8FDC0782976B16B9DC83CA75CD4DFC00504B0304140006080800B670623B55019EA25F0000007C00000007000000636E782E786D6C4DCB3B0E80201045D1AD90E915ED2CF8AC45050C11660C8261F98AB1B07AC9C97D42D718D865D3E909258CFD00CCE24AC6E326A164D74DC0B4128928FF326038
310
472BA13128B1252AC747C6BAB984FC68F0B87FE8960A5C09FE86CFB69FBA01504B0304140006080800B670623B3586FFB671010000D40300000C0000006662782F636F72652E786D6CC553ED6E8320147D15C2DF4541A76D6D90A6DDD627D80B50A4CE54C120983EFEAE1F4DD7A55BBA5FF3879273EEE59E7310B6393735EA
310
95ED2AA3731C851423A5A5292A5DE6D8BB63B0C268C39935C67D29C3488B46E578803167A535BE9D2169B453DA01AA4DA16650749D7218C91A1639EEE4876A4428BC838AEE14B6429E44A9C228041AEA38EB9C0501681A32BC313F1ECE8C4C3867DE57C5CC56054CAB8E95B298A7F12E5EEED224C8E87E11242FE936C8DE96
310
AB60BB7F4D295D66D12E5B30323473E6AAE6A24E5A259C2A308F29CD82280A68FC1E256B9AAE93F489AED694323294DF34F9B678B0C957DA3DC7B3DCA9ADC33C022123F1CD2D44E450277AD04338234388F01913BE0D1A0281909D38D4171F27807A259DB1093085F157AA17B557309586747CD0CF0B46A64E983A6E0EAEEF
310
CE881F9EF1FB8E70D44297604238581EBC1B74B249C31C5AAB6CD0BB33D2C636A27ECCC62F0EFF445DC5DF95244D6DEC7F2922F30191F9F720C37DE49F504B0304140006080800B670623B4220A0FF7D0000009D0000000B0000006662782F636E782E786D6C4DCCD10A83201886E15B91FFDCE542CB0335D0EC3E6259C84A
310
C3E9D8E5AF46073BFAE0E1E315DD675BD1DBA5978F41C2FD4600B9F088930F8B849267CC01754AA418F3DF0D50183727E164506249B1EC174D6E1ECB9A0F5D7D785E68DB8151CD286E5A5363CA6B8A39E90D36D40E96B086F55A43A544F52B1D7B86D517504B0304140006080800B670623B2FA3FEDE290100001202000031
310
0000006662782F45374635344235342D363743322D343832342D383044432D4334454645303536354442422F636F72652E786D6C8D515B6EC32010BC0AE22B55850D2E386E848994D7097A0117488A1283C5A3CAF10BB523B57FF961D1ECCCECC0F2ED7DBC816FED8371B687A4C210682B9D32F6D2C314CFA883602BB8772E
310
FEA141608751F7B0C050F08B77695A20E96CD43666D43AA5177008414708E42D5F7A18E4971E876A483133C2B59A06791D2EBA22556E679EE021FA1C00CC43CA09C5717D6274C7286AD7FB06D1AEA1A8C3873DDAD3E3E98859CB0EBB1DAF67A1E02919B5C88DCA71CCD968FFAC49110B1ECDF8882FBD1EA256503418BF2342
310
106E3E08DD60B6A1EC15771B8C795DE8FF4469524F8A92B1F1AD59E2CEB20005E1F5DC105CB9F4797B84D1F7C9F908CABC55D0F2050A5C61CC1AD2F27A26E6E767C7962E8E213A9FBF7775FDCC5CC266DB960A5E970DE5F2BBBE5CCB36C50F504B0304140006080800B670623B1B8617914E01000033030000300000006662
310
782F45374635344235342D363743322D343832342D383044432D4334454645303536354442422F636E782E786D6CD593C16EC32010447F0571AD6CE3D489D20813A9877E410FBD62D82434182CC055F3F75D1292E692438FBD206B7698593D61BEFD1E2DF982108D773D6D6B460938E5B571FB9ECE6957AD29D90A1EBC4F77
310
364A9C1CA1A759A682EF839FA72269D8C9D92654AD71C72206887E0E0A22CAF926B15E498B01E0AA19451807D01A34B919F16B070157417138917400F2F6FA41FCF0092A45DEE414C19BDC21783E4BD39D891265658C3D8DEA00A3ACE59CBC8678ACB54CB26EEB6BD7839D7E9348BE70AD9C8321B9BCA7F9A4A26C542347DE
310
E050F09802D22BA6749A800A394DD62899107273365E3C82CFC6A55557BC06C10774B7ABE7AEC3B0F34CF06446280E154026D0542C187BA9DAB6628BF7B6DBB0E5A65B3EB1F58631DE64BBE083F7B65CC218087E22CABB042E51D1F2268F1FE12B3EA24D40D63E9CFE00120194D60B9D5BC67FE6D39CDF37E20AF817881F50
310
4B0304140006080800B670623B29652116630500003C100000340000006662782F45374635344235342D363743322D343832342D383044432D4334454645303536354442422F6F626A656374732E786D6CAD575D739B3814FD2B0CFB0C989834C90EA1639B24E3E9A6EDD4D3CE3E64C623834CD8006224913AFDF57B040203
310
B65BEF871F0C12D2FD3CF7E8CA7FBFCB33E3957291B2E2D674ED8969D02262715A24B76625B7D6B569BC0F7CCE98EC2D338D82E4F4D654D366E0279C55A59E8AE99654991CCDDECFFF3444440B6A1A514684B83545F44C7362934AB2988A173B2692D8C97667BB76B3702836E1A47C1E092D09A78584A5982F20C5688C7287
310
C389E904BEA3BE07BEFAD7ABA6A75739B53F43FD69212429A20365233153D70BEF2E2E6FAC4BCF9B5ADEBB0BD79ADFCF43CBBD9A4E16EF168B9BD9DD0D140BC921495BC2E9D60C1E101B9E46BED37CEA2CD6861F3329624541A3DA7F7858DBAC25C6B4A4458C3CA654405BCFEBC970E8AAD8F43E4FD558ABEC4F9FE7557F47
310
4F506B7BFBEC5BCA367FC105710E2AB8A00A554D7CB4A30DFE26FBA86D18CBF4B75418399194A72433B274C3097F33032C554B027F2046A1932B842B0FCCC0DDCBEBDB8AD2F835768F59B9ADB24C41D30C6A64AF817F2A456D59FA83F2E3DA60137255A585BCD60EC9B7929AC18DEFD49381AF1ED30BFDB109A4B1CD488294
310
C3CDE6EBC8D185AABD6568061FEE37BB95AAC7E3CA4BCE4ACAA5820FA0D526AE7DAA2869B5EE5999531BE0CC20E6FBA07C41E43FA27CF7A6206F3CDD793B4F6B919C1462CB788EDCD893FA674CDA17AB7B3B7C019F8D561FAEE966FED562DFE98C1D12C6A9FC015C2A35D7FF3D7FC398F591DA4B5FE0BFA2C0189FEA50AE22
310
92817A1ED3020951A03432862970F976B33383259812CC8E5D240BBA801CBCF8CE2BBEE3BF910DB6AAD5F79E05123AE2DB33981FB1ACCB02B69D00CB014FD68AB573A7627EF9BFD4CC2C5C7D58557C4B22FAA88925A4DBB44825CECE3D78FB060D1231F0E885BE7D673C86A3874958F593906B5502D1563157814FDAC3420D
310
F69A070A22EC4B98E23CFF171A1E5311D12C23056555ABA53B8614563B92D17D02AAB009E8F46284624E5F53D5490C560CCCC2591FF1B45421EB0EBD8EA7ED13BE7C5D7E0428CD60FEF60779EB13E6664FF711CB185F6FDED60D139A001FF60CD1FD6D086F1D51474901E26B2CB794A343BC8ED3EDB612E0DD2351FCB65CF4
310
33D511C9E14B5B40ADC6A6263DB0336A8F700DDF56271A024E70B0B3629DE21847591E55DED73D56206AB927E46FAABC5C939C55853C274C93D69FD6FA4E78BF8B11DF898C9ECD60553FAD39283BA6F18984AA23E8884F83F45C5F5F859797B31B2B9C84A1E5B9DE9D35BFF25C6B76152E422F9C5DCC3D847F5801ED09D5AF
310
41441327A25FF15487F9EB725FB666F048A4701E9A827292E6F97569A32DF61DEC01C0BB8DCBBCCC684E0B49147C1FD54BF685A0AB18C868E6973949E819523E3DAC463660E68C7D9F55A9D1EFA3BD7A76A16AE1A810F95CE59B82A4D968A376DC2E8B44BBDD86B27B368CDE0ED548C7137DA860591A83706223A12CA712B4
310
7306DBF39C0A20A6DF95C7FAF670C6EED7A61F946493D1D6926782963813403548A78AE470DEF80D2D9CEAA26E4D1C76F60BFE74219A06527D6B82DF641A51616F703CAAC6A7160E08A00BEB4810A0274592A1B36E3675E36E978A0DE80727A0D6DF2D39A75BD27E0D8837276589537B40ABB56D5A41F48F1C6FCD3188C4EB
310
A6929D2FFB89CE995A4D00AE813BDD032DC48B56BD437DFDDC2DD7AED70C2272D63DE9A72068A45A92F0A4BE17A8A06B9366E16707AD80B1FC649459952097E74BB23805982B55E0401150A165964402AA8BDF9F3E7386BB686EDCA780C0D382E5392BF460A6EFB2C6EA1937D3F809B440D5F5435C4C5CF7A9EEFAF54564BD
310
2182DA24162F98680B4E7930C21A0079709CEAEB99A372305ABE0C0D7D6078105A83F6A0296DAEE1068A47DD1C55A9F4C9B2FC69E3EFD44B81028E963DF81B504B0304140006080000B670623B000000000000000000000000350000006662782F45374635344235342D363743322D343832342D383044432D433445464530
310
3536354442422F76657274696365732E62696E504B0304140006080800B670623BF270F1330600000004000000360000006662782F45374635344235342D363743322D343832342D383044432D4334454645303536354442422F747269616E676C65732E62696E636660600000504B0304140006080000B670623B00000000
310
0000000000000000370000006662782F45374635344235342D363743322D343832342D383044432D4334454645303536354442422F617474726962757465732E62696E504B0304140006080800B670623B08DA0BD19000000041010000360000006662782F45374635344235342D363743322D343832342D383044432D4334
310
454645303536354442422F6469726563746F72792E786D6C858F410AC3201045AF22B36F53E9A60B35CBEEBAE80D244E44489C6234F4F835464A48035D0DF398FF9F8AF63D0E6CC63039F212F8F9020C7D47C6792B21C5FE7403D62A1188E2E60C98D7234A5830286103A55745067B9D86B8A3CF9C7F90C11DE607FB144396
310
D7B6A82D282E9A152AD114D5EF2CB866EEE831B8EEA07A7BB5A8D7D61A2BAAEB7FD5F70921FF497D00504B0304140006080800B670623B6378F24DFF000000A00100003B0000006662782F45374635344235342D363743322D343832342D383044432D4334454645303536354442422F7265736F75726365732F636F72652E
310
786D6C8D504B6E833010BD0A9A6D65B0094E42641C85B639412F6099496225D8C89FAAC7AF09546A77DDCC8CDE47F3F4C4F16B7C149FE88371B603565228D06A37187BED20C50BD9437194C23B177FC9A0B06AC40E6618A4B87A97A615D2CE46B431A3D60DB8822A048C50E8473E3A08FA86A32A558A5911EEE5A4F45D5DB1
310
6465A6B34E8A107D0E502C4FE609D26370C96B0CA25A58295232C3AA3143FE692E063D485EF7F5AEE71BD2D2F39634AFFC44DAF7DD9E9CCE6F9CD25DCBFA762BAAD92C4534E34F46ED51451C40D694B6843142EB0FD61C283F34FC85EE0F948A6A96FF31A569F8A729191B37F51A77B105902C0779125254735F793DCBCC7B
310
EE567E03504B010214000A0000080000B670623B3DEE336E79000000790000001B00000000000000000000000000000000006175746F6465736B2D64657369676E2D7061636B6167652E786D6C504B01021400140006080800B670623BD486FD9CA0000000F40000001300000000000000000000000000B20000005B436F6E
310
74656E745F54797065735D2E786D6C504B01021400140006080800B670623BBC1638F5EC0000007C010000080000000000000000000000000083010000636F72652E786D6C504B01021400140006080800B670623B55019EA25F0000007C000000070000000000000000000000000095020000636E782E786D6C504B010214
310
00140006080800B670623B3586FFB671010000D40300000C00000000000000000000000000190300006662782F636F72652E786D6C504B01021400140006080800B670623B4220A0FF7D0000009D0000000B00000000000000000000000000B40400006662782F636E782E786D6C504B01021400140006080800B670623B2F
310
A3FEDE290100001202000031000000000000000000000000005A0500006662782F45374635344235342D363743322D343832342D383044432D4334454645303536354442422F636F72652E786D6C504B01021400140006080800B670623B1B8617914E010000330300003000000000000000000000000000D2060000666278
310
2F45374635344235342D363743322D343832342D383044432D4334454645303536354442422F636E782E786D6C504B01021400140006080800B670623B29652116630500003C10000034000000000000000000000000006E0800006662782F45374635344235342D363743322D343832342D383044432D4334454645303536
310
354442422F6F626A656374732E786D6C504B01021400140006080000B670623B0000000000000000000000003500000000000000000000000000230E00006662782F45374635344235342D363743322D343832342D383044432D4334454645303536354442422F76657274696365732E62696E504B01021400140006080800
310
B670623BF270F13306000000040000003600000000000000000000000000760E00006662782F45374635344235342D363743322D343832342D383044432D4334454645303536354442422F747269616E676C65732E62696E504B01021400140006080000B670623B0000000000000000000000003700000000000000000000
310
000000D00E00006662782F45374635344235342D363743322D343832342D383044432D4334454645303536354442422F617474726962757465732E62696E504B01021400140006080800B670623B08DA0BD190000000410100003600000000000000000000000000250F00006662782F45374635344235342D363743322D34
310
3832342D383044432D4334454645303536354442422F6469726563746F72792E786D6C504B01021400140006080800B670623B6378F24DFF000000A00100003B00000000000000000000000000091000006662782F45374635344235342D363743322D343832342D383044432D4334454645303536354442422F7265736F75
310
726365732F636F72652E786D6C504B0506000000000E000E0080040000611100000000
  0
XRECORD
  5
796
102
{ACAD_REACTORS
330
110
102
}
330
110
100
AcDbXrecord
280
     1
102
MATERIAL
148
0.0
149
0.0
149
0.0
 93
        0
 94
      127
282
     0
 72
     1
 77
     1
171
     1
175
     1
179
     1
273
     0
  0
XRECORD
  5
112
102
{ACAD_REACTORS
330
110
102
}
330
110
100
AcDbXrecord
280
     1
270
     1
271
     1
  0
XRECORD
  5
111
102
{ACAD_REACTORS
330
110
102
}
330
110
100
AcDbXrecord
280
     1
270
     1
271
     1
  0
XRECORD
  5
18A
102
{ACAD_REACTORS
330
110
102
}
330
110
100
AcDbXrecord
280
     1
 70
     0
 90
1778669749
  1
9BF507EE-FAF7-4A99-A33D-4EE51894BC40
310
504B03040A0000080000B670623B3DEE336E79000000790000001B0000006175746F6465736B2D64657369676E2D7061636B6167652E786D6C3C3F786D6C2076657273696F6E3D22312E302220656E636F64696E673D227574662D3822203F3E3C666F726D6174733E3C666F726D61743E687474703A2F2F736368656D612E
310
6175746F6465736B2E636F6D2F64657369676E2D7061636B6167652F323030393C2F666F726D61743E3C2F666F726D6174733E504B0304140006080800B670623BD486FD9CA0000000F4000000130000005B436F6E74656E745F54797065735D2E786D6C7D8EC10E82300C865F65E91D8A1E8C310C0EEA1BF002731658846E
310
D98AC1B77784ABF1D8FE5FBFBF75BBCE937A534CCEB38643598122B6FEE978D0B0485F9C41B54DDD7D022595594E1A469170414C76A4D9A4D207E29CF43ECE46F218070CC6BECC4078ACAA135ACF422C856C0E68EA1BF5669944DDD7BCDE7B1F8E415D77AECB980613C2E4AC91FC167A2B244592486606FC29C8FD7F045B9A
310
EF7053A7E60B504B0304140006080800B670623BCA089DFFEC0000007C01000008000000636F72652E786D6C8D90416E83301045AF62CDB632D8402020E32882F604BD80653BC44AB011B6AB1EBF262152BBEB6A467FFE9B197D76FA9EEFE84BAFDE38DB03CD08206DA553C64E3DC470C1474027CE56E7C22F1B202B66DDC3
310
260367D3EAE2B24BD2D9A06D48AA754AEFA2F05E0740F29E9A1EBCBCEA59642286E4F0B76C11F226269DD15797E0188D42CF2346A57DE662F40ABCAEC77628C6120F654571D50C04B7F5B9C1E3997CD4F550BE3745C3F20DE62C98F9755FAE5A04AD801784B498524C8A4F5A75E4D055873772EC0861F966FF03C545FD138A
310
C686B2D8DF7D621E384D8F3C069CE55B16A93C824A75CB8DFF00504B0304140006080800B670623B55019EA25F0000007C00000007000000636E782E786D6C4DCB3B0E80201045D1AD90E915ED2CF8AC45050C11660C8261F98AB1B07AC9C97D42D718D865D3E909258CFD00CCE24AC6E326A164D74DC0B4128928FF326038
310
472BA13128B1252AC747C6BAB984FC68F0B87FE8960A5C09FE86CFB69FBA01504B0304140006080800B670623B68FC0B7272010000D40300000C0000006662782F636F72652E786D6CC5535B6E833010BC8AE5DF0A6C1E8124328E22D29EA01770C0A128602363A31CBFCB234A53A555FA553EC09AD9F5CE8C31DB5DDA060D
310
D2F4B556190E7C8A9154852E6B5565D8D993B7C668C799D1DA7E29C3488956667884316795D1AE5BA0422B2B950554E9522EA0E87B69312A1A5864B82F3E642B7CE12C54F467BF13C55954D20F7CA0A18EB3DE1A1080E621E31BF3D3F1C2C88C73E65C5D2E6C5DC2B4FA544B8379921C36797888BC3C8A032F4E73EA6D927D
310
EA1DF6F42D49F2E8350D5346C666CE6CDD5ED515460A2B4BCC434A375E1078347C0FE22D5D6DE3D50B5D6F2965642CBF6B725DF96493AB958DC245EEDCD6631E809089F8E61622B2A81703E8219C913144F84C09DF070D8140C8561C9BAB8F3340832CAC363130A576376A108D933095FA747AD0CF0B46E64E983A6D0EAE1F
310
CE089F9EF1FB8E70D44255604258581E9D1D75B259C3125A278D37D80B52DAB4A279CEC62F0EFF44DDC43F9454E8469BFF5244960322CBEF41C6FBC83F01504B0304140006080800B670623B0F71DDB67E0000009D0000000B0000006662782F636E782E786D6C4DCCD10A83201886E15B91FFDCA54DB73F502386BB8F5816
310
32D3703976F9ABD1C18E3E78F87855FB990379BBFCF2296AE02706C4C5471A7C9C349475A408A4352AA7B4FEDD80C47E761A7606A3A69CCA72D0E0C6BE8475D3E0E3F3409428EA6B27A84079A782899AA2EC1A7AE3ECCC2FD858CB2D544655BFD2B67BD87C01504B0304140006080800B670623BE134B4FB28010000120200
310
00310000006662782F38353834323741342D343835462D343034322D383541392D4331303331363839454531452F636F72652E786D6C8D515B6EC32010BC0AE22B55850D0EA424C24451959EA0172086A42831583CAA1CBF503B52FB971F16CDCECC0EACD8DFC71BF836215AEF7A481A0C817183D7D65D7A98D3197108F652
310
04EFD31F1A044E8DA6871586525C82CFD3020DDE25E352419DD76601558C264130DCCAA58771F832A36A544E8511AFCDA486ABBA988634A55D7852C4144A00300FA927949C71DABD1D28A29C7D208A6987383B6CD13BC16BB2E1DBE3911C453B0BA5C8D9EA456E758963CFD684674DAA588A64C747FC2118958C86B2C3788B
310
0841B8FB247487D98EB257CC77188BB6D2FF89F2A49F1465EBD2BA5BE2CEB2082511EDDC9042FB7CBA3DC298FBE4430275DE2A9AE1054ADC60CC08E3A29D89E5F9C5714317C7987C28DFBBBA9E0A97B0D97643A568EB864AF95D5FA9759BF207504B0304140006080800B670623B1B8617914E010000330300003000000066
310
62782F38353834323741342D343835462D343034322D383541392D4331303331363839454531452F636E782E786D6CD593C16EC32010447F0571AD6CE3D489D20813A9877E410FBD62D82434182CC055F3F75D1292E692438FBD206B7698593D61BEFD1E2DF982108D773D6D6B460938E5B571FB9ECE6957AD29D90A1EBC4F
310
77364A9C1CA1A759A682EF839FA72269D8C9D92654AD71C72206887E0E0A22CAF926B15E498B01E0AA19451807D01A34B919F16B070157417138917400F2F6FA41FCF0092A45DEE414C19BDC21783E4BD39D891265658C3D8DEA00A3ACE59CBC8678ACB54CB26EEB6BD7839D7E9348BE70AD9C8321B9BCA7F9A4A26C542347
310
DEE050F09802D22BA6749A800A394DD62899107273365E3C82CFC6A55557BC06C10774B7ABE7AEC3B0F34CF06446280E154026D0542C187BA9DAB6628BF7B6DBB0E5A65B3EB1F58631DE64BBE083F7B65CC218087E22CABB042E51D1F2268F1FE12B3EA24D40D63E9CFE00120194D60B9D5BC67FE6D39CDF37E20AF817881F
310
504B0304140006080800B670623B5933D422630500003B100000340000006662782F38353834323741342D343835462D343034322D383541392D4331303331363839454531452F6F626A656374732E786D6CAD575B6FA33814FE2B887D0642934E9B156594264D158D3A534DD4D13E548A0C38942D60649B4EBABF7E3F8321
310
40924EF6928780CDF1B97EE762EFF32E4B8D37CA45C2F21BD3B547A641F39045491EDF98A5DC5AD7A6F1D9F73863B243661A39C9E88DA9B64DDF8B392B0BBD15D12D295339D85DDEFE618890E6D434C2940871638AF08566C426A5641115AF764424B1E3EDCE76ED9AB0CF36E6A47819302D08A7B984A6D8CFC1C5A89572FB
310
CB91E9F89EA3BEFB9EFAD754E3D3544E654F5F7E920B49F2F040D880CDD89D2CEE2E2EA7D6E56432B6269F2E5CEB7679BBB0DCABF168FE693E9FCEEEA6102C240727AD09A75BD3BF876F78127A4EFDA9D5582B7E4CA590E5390D2BFB6161A5B3E618D182E611E2985001691DAB47FDA5AB7CD3F93C566B2DB2BB7D9E55DD13
310
1D468DEECDB3AB290BFE8409E21C54704115AA6AFF68436BFC8DF65E0B184BF5B74418199194272435D224E084BF9B3E481589EFF5D828747285706581E9BB7B7E5D5D911ABFC6EE312DB7659A2A689A7E85EC0DF04FA5A8344BFEA2FCB834E8845895492EAFB541F2BDA0A63FF59C6AD3F7D4637CA13FD68E34B629891172
310
98597F1D183A57B9B75A98FE9765B05BAB7C3C2EBCE0ACA05C2AF8005A4DE09AA7F29216EB9E15397500C6F47CBE77CA7778FE2BD277AF0AE2C693DD6437D1522427B9D8329E2136F6A8FA19A3E6C56ADF0E5F50CF06D48734EDCEBF22F69C56D97EC138153F804B85E6FABFC7AFEFB32E523BE1F3BD372418E363EDCA7548
310
52949E8724474014288D94610BB57C1BEC4C7F854A89CA8E5324F55B871CBC78CE1BBEE3BFE68D6A5589EF3C730474506FCFA8FCF0659516D0ED04580EEA6425581B77CAE797FF4BCECC16EB2FEB926F49481F746159D06D922712BD730FDEAE42BD40F42C7AA5EF3F198F60E86110D6DD20645A9480B795CF95E3E3A659A8
310
C55E724F408873315335CFFB8584874484344D494E59D94869DB90C26A5B64F49C802CAC1D3ABE18A098D3B7444D123D8A9E5AE8F5214F0AE5B2B6E9B575DA3E61CBD3EA2B4009FA940524DD1305FB6A1FB294F14DF0BEA90BA109ECE1481FDC3FFAE8D60E75141700BE82725371B4873751B2DD960265F788137FACE6DD40
310
B575E4F0A5C99F46629D92131467A41EE11ABD8D4CCC039CA0AFB37C93A08B232B8F0AEFCA1E0A1015DF13FC83322B362463652ECF71D3A8B1A7D1BE65DE1D62C44F22C317D35F574FEB16153BA2D13E543D10A80E74C4A65E78A6B7CBCBD1D5DD9DB59C2DAFACC96C3AB566E3F1C29ADCDD5DBAD7D3C9ED7C822ED74F80A6
310
41755310DE4443F44A9E68373FADF6596BFA0F440AE7BECE2727AE9F4F2B1B53B1E7E00CF0DD1E5C65454A339A4BA2D0FBA05ED2EF0443458F47BDBFCA484CCFE0F2ED7E3DD0013B679C7B5499467F0ECEEADDB9CA85A34CE44B99053949D2C1416DB85DE4B136BB7165FBAC0B7AB3542BED4F8CA182A549847A1319316519
310
95A83A67147B9E5101C47487F2485F1ECE38FD568F839204296D3479219888530154036E6528FBFBC66F98E0D4107563A2D7D9AFF8D389681A08F58D89F22693900A3B407754734FC51C10C010D6D640809EE4718AC1BA3ED4AEDB53CA37283F68805A7E4B72CEB0A4EDEAD5DD8C14059A76AFAA56BA6901E13F32BC51C720
310
12AF41295B5BF61BAD3195181FB506E6B40F4C10AF5AF40EF9F5B159AE5DD1F43C72D635E94310D45C2D49785C5D0B94D3B54AB3C5A38349C0587D338AB48C11CBF339599C02CCA54A70A008A8D03C0B2201D5F9EFCF8F9CE12A9A19CB0410789EB32C63B95ECCF455D658BFE0621A3DA32C5075FB101723D77DAE867E7D0F
310
D90444509B44E2151B4DC2290B065803200FBAA9BE9D392A0603F2D5C2D00D6302A615680F66D2FA166E2079D4C551A54AB758161FCEFD4E450A14704CECFEDF504B0304140006080000B670623B000000000000000000000000350000006662782F38353834323741342D343835462D343034322D383541392D4331303331
310
363839454531452F76657274696365732E62696E504B0304140006080800B670623BF270F1330600000004000000360000006662782F38353834323741342D343835462D343034322D383541392D4331303331363839454531452F747269616E676C65732E62696E636660600000504B0304140006080000B670623B000000
310
000000000000000000370000006662782F38353834323741342D343835462D343034322D383541392D4331303331363839454531452F617474726962757465732E62696E504B0304140006080800B670623B08DA0BD19000000041010000360000006662782F38353834323741342D343835462D343034322D383541392D43
310
31303331363839454531452F6469726563746F72792E786D6C858F410AC3201045AF22B36F53E9A60B35CBEEBAE80D244E44489C6234F4F835464A48035D0DF398FF9F8AF63D0E6CC63039F212F8F9020C7D47C6792B21C5FE7403D62A1188E2E60C98D7234A5830286103A55745067B9D86B8A3CF9C7F90C11DE607FB1443
310
96D7B6A82D282E9A152AD114D5EF2CB866EEE831B8EEA07A7BB5A8D7D61A2BAAEB7FD5F70921FF497D00504B0304140006080800B670623BD9A3B367FE000000A00100003B0000006662782F38353834323741342D343835462D343034322D383541392D4331303331363839454531452F7265736F75726365732F636F7265
310
2E786D6C8D504B6E833010BD0A9A6D65B01D0201194711694FD00B586642AD043BF2A7EAF16B122AB5BB6E6646EFA3797AE2F8B5DC8A4FF4C1383B002B291468B59B8C9D0748F1420E501CA5F0CEC55F3228AC5A708015062966EFD27D83B4B3116DCCA875136EA00A012314FA968F0182FEC045952AC5AC08D7F2AEF455CD
310
58B232D3592745883E07289E4FD609D26370C96B0CA27AB252A464A64D63A6FCD35C0C7A904D73EE467EE664DCD58CD4ED4849D79C5A723ED1B7A61977AF2D6F45B59AA58866F9C9A83DAA8813484E6947182394BFB3BAA7FBBEDEBFD0434FA9A856F91F53BA4FFF342563E38E6F719FB60092E5200F428A6AED2BAF479979
310
AFDDCA6F504B010214000A0000080000B670623B3DEE336E79000000790000001B00000000000000000000000000000000006175746F6465736B2D64657369676E2D7061636B6167652E786D6C504B01021400140006080800B670623BD486FD9CA0000000F40000001300000000000000000000000000B20000005B436F6E
310
74656E745F54797065735D2E786D6C504B01021400140006080800B670623BCA089DFFEC0000007C010000080000000000000000000000000083010000636F72652E786D6C504B01021400140006080800B670623B55019EA25F0000007C000000070000000000000000000000000095020000636E782E786D6C504B010214
310
00140006080800B670623B68FC0B7272010000D40300000C00000000000000000000000000190300006662782F636F72652E786D6C504B01021400140006080800B670623B0F71DDB67E0000009D0000000B00000000000000000000000000B50400006662782F636E782E786D6C504B01021400140006080800B670623BE1
310
34B4FB280100001202000031000000000000000000000000005C0500006662782F38353834323741342D343835462D343034322D383541392D4331303331363839454531452F636F72652E786D6C504B01021400140006080800B670623B1B8617914E010000330300003000000000000000000000000000D3060000666278
310
2F38353834323741342D343835462D343034322D383541392D4331303331363839454531452F636E782E786D6C504B01021400140006080800B670623B5933D422630500003B10000034000000000000000000000000006F0800006662782F38353834323741342D343835462D343034322D383541392D4331303331363839
310
454531452F6F626A656374732E786D6C504B01021400140006080000B670623B0000000000000000000000003500000000000000000000000000240E00006662782F38353834323741342D343835462D343034322D383541392D4331303331363839454531452F76657274696365732E62696E504B01021400140006080800
310
B670623BF270F13306000000040000003600000000000000000000000000770E00006662782F38353834323741342D343835462D343034322D383541392D4331303331363839454531452F747269616E676C65732E62696E504B01021400140006080000B670623B0000000000000000000000003700000000000000000000
310
000000D10E00006662782F38353834323741342D343835462D343034322D383541392D4331303331363839454531452F617474726962757465732E62696E504B01021400140006080800B670623B08DA0BD190000000410100003600000000000000000000000000260F00006662782F38353834323741342D343835462D34
310
3034322D383541392D4331303331363839454531452F6469726563746F72792E786D6C504B01021400140006080800B670623BD9A3B367FE000000A00100003B000000000000000000000000000A1000006662782F38353834323741342D343835462D343034322D383541392D4331303331363839454531452F7265736F75
310
726365732F636F72652E786D6C504B0506000000000E000E0080040000611100000000
  0
XRECORD
  5
113
102
{ACAD_REACTORS
330
110
102
}
330
110
100
AcDbXrecord
280
     1
270
     1
271
     1
  0
XRECORD
  5
114
102
{ACAD_REACTORS
330
110
102
}
330
110
100
AcDbXrecord
280
     1
270
     1
271
     1
  0
XRECORD
  5
86C
102
{ACAD_REACTORS
330
86B
102
}
330
86B
100
AcDbXrecord
280
     1
102
DISPLAYNAME
  1
Imperial24
102
FLAGS
 90
        0
  0
CELLSTYLEMAP
  5
82E
102
{ACAD_REACTORS
330
104
102
}
330
104
100
AcDbCellStyleMap
 90
        3
300
CELLSTYLE
  1
TABLEFORMAT_BEGIN
 90
        5
170
     1
 91
        0
 92
    32768
 62
   257
 93
        1
300
CONTENTFORMAT
  1
CONTENTFORMAT_BEGIN
 90
        0
 91
        0
 92
      512
 93
        0
300

 40
0.0
140
1.0
 94
        5
 62
     0
340
11
144
0.25
309
CONTENTFORMAT_END
171
     1
301
MARGIN
  1
CELLMARGIN_BEGIN
 40
0.06
 40
0.06
 40
0.06
 40
0.06
 40
0.18
 40
0.18
309
CELLMARGIN_END
 94
        6
 95
        1
302
GRIDFORMAT
  1
GRIDFORMAT_BEGIN
 90
        0
 91
        1
 62
     0
 92
       -2
340
0
 93
        0
 40
0.045
309
GRIDFORMAT_END
 95
        2
302
GRIDFORMAT
  1
GRIDFORMAT_BEGIN
 90
        0
 91
        1
 62
     0
 92
       -2
340
0
 93
        0
 40
0.045
309
GRIDFORMAT_END
 95
        4
302
GRIDFORMAT
  1
GRIDFORMAT_BEGIN
 90
        0
 91
        1
 62
     0
 92
       -2
340
0
 93
        0
 40
0.045
309
GRIDFORMAT_END
 95
        8
302
GRIDFORMAT
  1
GRIDFORMAT_BEGIN
 90
        0
 91
        1
 62
     0
 92
       -2
340
0
 93
        0
 40
0.045
309
GRIDFORMAT_END
 95
       16
302
GRIDFORMAT
  1
GRIDFORMAT_BEGIN
 90
        0
 91
        1
 62
     0
 92
       -2
340
0
 93
        0
 40
0.045
309
GRIDFORMAT_END
 95
       32
302
GRIDFORMAT
  1
GRIDFORMAT_BEGIN
 90
        0
 91
        1
 62
     0
 92
       -2
340
0
 93
        0
 40
0.045
309
GRIDFORMAT_END
309
TABLEFORMAT_END
  1
CELLSTYLE_BEGIN
 90
        1
 91
        1
300
_TITLE
309
CELLSTYLE_END
300
CELLSTYLE
  1
TABLEFORMAT_BEGIN
 90
        5
170
     1
 91
        0
 92
        0
 62
   257
 93
        1
300
CONTENTFORMAT
  1
CONTENTFORMAT_BEGIN
 90
        0
 91
        0
 92
      512
 93
        0
300

 40
0.0
140
1.0
 94
        5
 62
     0
340
11
144
0.18
309
CONTENTFORMAT_END
171
     1
301
MARGIN
  1
CELLMARGIN_BEGIN
 40
0.06
 40
0.06
 40
0.06
 40
0.06
 40
0.18
 40
0.18
309
CELLMARGIN_END
 94
        6
 95
        1
302
GRIDFORMAT
  1
GRIDFORMAT_BEGIN
 90
        0
 91
        1
 62
     0
 92
       -2
340
0
 93
        0
 40
0.045
309
GRIDFORMAT_END
 95
        2
302
GRIDFORMAT
  1
GRIDFORMAT_BEGIN
 90
        0
 91
        1
 62
     0
 92
       -2
340
0
 93
        0
 40
0.045
309
GRIDFORMAT_END
 95
        4
302
GRIDFORMAT
  1
GRIDFORMAT_BEGIN
 90
        0
 91
        1
 62
     0
 92
       -2
340
0
 93
        0
 40
0.045
309
GRIDFORMAT_END
 95
        8
302
GRIDFORMAT
  1
GRIDFORMAT_BEGIN
 90
        0
 91
        1
 62
     0
 92
       -2
340
0
 93
        0
 40
0.045
309
GRIDFORMAT_END
 95
       16
302
GRIDFORMAT
  1
GRIDFORMAT_BEGIN
 90
        0
 91
        1
 62
     0
 92
       -2
340
0
 93
        0
 40
0.045
309
GRIDFORMAT_END
 95
       32
302
GRIDFORMAT
  1
GRIDFORMAT_BEGIN
 90
        0
 91
        1
 62
     0
 92
       -2
340
0
 93
        0
 40
0.045
309
GRIDFORMAT_END
309
TABLEFORMAT_END
  1
CELLSTYLE_BEGIN
 90
        2
 91
        1
300
_HEADER
309
CELLSTYLE_END
300
CELLSTYLE
  1
TABLEFORMAT_BEGIN
 90
        5
170
     1
 91
        0
 92
        0
 62
   257
 93
        1
300
CONTENTFORMAT
  1
CONTENTFORMAT_BEGIN
 90
        0
 91
        0
 92
      512
 93
        0
300

 40
0.0
140
1.0
 94
        2
 62
     0
340
11
144
0.18
309
CONTENTFORMAT_END
171
     1
301
MARGIN
  1
CELLMARGIN_BEGIN
 40
0.06
 40
0.06
 40
0.06
 40
0.06
 40
0.18
 40
0.18
309
CELLMARGIN_END
 94
        6
 95
        1
302
GRIDFORMAT
  1
GRIDFORMAT_BEGIN
 90
        0
 91
        1
 62
     0
 92
       -2
340
0
 93
        0
 40
0.045
309
GRIDFORMAT_END
 95
        2
302
GRIDFORMAT
  1
GRIDFORMAT_BEGIN
 90
        0
 91
        1
 62
     0
 92
       -2
340
0
 93
        0
 40
0.045
309
GRIDFORMAT_END
 95
        4
302
GRIDFORMAT
  1
GRIDFORMAT_BEGIN
 90
        0
 91
        1
 62
     0
 92
       -2
340
0
 93
        0
 40
0.045
309
GRIDFORMAT_END
 95
        8
302
GRIDFORMAT
  1
GRIDFORMAT_BEGIN
 90
        0
 91
        1
 62
     0
 92
       -2
340
0
 93
        0
 40
0.045
309
GRIDFORMAT_END
 95
       16
302
GRIDFORMAT
  1
GRIDFORMAT_BEGIN
 90
        0
 91
        1
 62
     0
 92
       -2
340
0
 93
        0
 40
0.045
309
GRIDFORMAT_END
 95
       32
302
GRIDFORMAT
  1
GRIDFORMAT_BEGIN
 90
        0
 91
        1
 62
     0
 92
       -2
340
0
 93
        0
 40
0.045
309
GRIDFORMAT_END
309
TABLEFORMAT_END
  1
CELLSTYLE_BEGIN
 90
        3
 91
        2
300
_DATA
309
CELLSTYLE_END
  0
XRECORD
  5
83A
102
{ACAD_REACTORS
330
104
102
}
330
104
100
AcDbXrecord
280
     1
102
ACAD_ROUNDTRIP_PRE2007_TABLESTYLE
 90
      512
 91
        0
  1

 92
      512
 93
        0
  2

 94
      512
 95
        0
  3

  0
XRECORD
  5
846
102
{ACAD_REACTORS
330
845
102
}
330
845
100
AcDbXrecord
280
     1
102
RTVSPost2010Prop28
280
     1
102
RTVSPost2010PropOp28
 70
     1
102
RTVSPost2010Prop29
280
     1
102
RTVSPost2010PropOp29
 70
     1
102
RTVSPost2010Prop30
280
     0
102
RTVSPost2010PropOp30
 70
     1
102
RTVSPost2010Prop31
280
     0
102
RTVSPost2010PropOp31
 70
     1
102
RTVSPost2010Prop32
280
     0
102
RTVSPost2010PropOp32
 70
     1
102
RTVSPost2010Prop33
280
     0
102
RTVSPost2010PropOp33
 70
     1
102
RTVSPost2010Prop34
280
     0
102
RTVSPost2010PropOp34
 70
     1
102
RTVSPost2010Prop35
280
     0
102
RTVSPost2010PropOp35
 70
     1
102
RTVSPost2010Prop36
280
     0
102
RTVSPost2010PropOp36
 70
     1
102
RTVSPost2010Prop37
 90
       50
102
RTVSPost2010PropOp37
 70
     1
102
RTVSPost2010Prop38
140
0.0
102
RTVSPost2010PropOp38
 70
     1
102
RTVSPost2010Prop39
140
1.0
102
RTVSPost2010PropOp39
 70
     1
102
RTVSPost2010Prop40
 90
        0
102
RTVSPost2010PropOp40
 70
     1
102
RTVSPost2010Prop41ColorIndex
 90
       18
102
RTVSPost2010Prop41ColorRGB
 90
        0
102
RTVSPost2010PropOp41
 70
     1
102
RTVSPost2010Prop42
 90
       50
102
RTVSPost2010PropOp42
 70
     1
102
RTVSPost2010Prop43
 90
        3
102
RTVSPost2010PropOp43
 70
     1
102
RTVSPost2010Prop44ColorIndex
 90
        5
102
RTVSPost2010Prop44ColorRGB
 90
      255
102
RTVSPost2010PropOp44
 70
     1
102
RTVSPost2010Prop45
280
     0
102
RTVSPost2010PropOp45
 70
     1
102
RTVSPost2010Prop46
 90
       50
102
RTVSPost2010PropOp46
 70
     1
102
RTVSPost2010Prop47
 90
       50
102
RTVSPost2010PropOp47
 70
     1
102
RTVSPost2010Prop48
 90
       50
102
RTVSPost2010PropOp48
 70
     1
102
RTVSPost2010Prop49
280
     0
102
RTVSPost2010PropOp49
 70
     1
102
RTVSPost2010Prop50
 90
       50
102
RTVSPost2010PropOp50
 70
     1
102
RTVSPost2010Prop51ColorIndex
 90
      256
102
RTVSPost2010Prop51ColorRGB
 90
-16777216
102
RTVSPost2010PropOp51
 70
     0
102
RTVSPost2010Prop52
140
1.0
102
RTVSPost2010PropOp52
 70
     0
102
RTVSPost2010Prop53
 90
        2
102
RTVSPost2010PropOp53
 70
     1
102
RTVSPost2010Prop54
  1
strokes_ogs.tif
102
RTVSPost2010PropOp54
 70
     1
102
RTVSPost2010Prop55
280
     0
102
RTVSPost2010PropOp55
 70
     1
102
RTVSPost2010Prop56
140
1.0
102
RTVSPost2010PropOp56
 70
     1
102
RTVSPost2010Prop57
140
1.0
102
RTVSPost2010PropOp57
 70
     1
102
RTVSPropertyOp0
 70
     1
102
RTVSPropertyOp1
 70
     1
102
RTVSPropertyOp2
 70
     1
102
RTVSPropertyOp3
 70
     1
102
RTVSPropertyOp4
 70
     1
102
RTVSPropertyOp5
 70
     1
102
RTVSPropertyOp6
 70
     1
102
RTVSPropertyOp7
 70
     1
102
RTVSPropertyOp8
 70
     1
102
RTVSPropertyOp9
 70
     1
102
RTVSPropertyOp10
 70
     1
102
RTVSPropertyOp11
 70
     1
102
RTVSPropertyOp12
 70
     1
102
RTVSPropertyOp13
 70
     1
102
RTVSPropertyOp14
 70
     1
102
RTVSPropertyOp15
 70
     1
102
RTVSPropertyOp16
 70
     1
102
RTVSPropertyOp17
 70
     1
102
RTVSPropertyOp18
 70
     1
102
RTVSPropertyOp19
 70
     1
102
RTVSPropertyOp20
 70
     1
102
RTVSPropertyOp21
 70
     1
102
RTVSPropertyOp22
 70
     1
102
RTVSPropertyOp23
 70
     1
102
RTVSPropertyOp24
 70
     1
102
RTVSPropertyOp25
 70
     1
102
RTVSPropertyOp26
 70
     1
102
RTVSPropertyOp27
 70
     1
102
RTVSPropertyOp28
 70
     1
102
RTVSPropertyOp29
 70
     1
102
RTVSPropertyOp30
 70
     1
102
RTVSPropertyOp31
 70
     1
102
RTVSPropertyOp32
 70
     1
102
RTVSPropertyOp33
 70
     1
102
RTVSPropertyOp34
 70
     1
102
RTVSPropertyOp35
 70
     1
102
RTVSPropertyOp36
 70
     1
102
RTVSPropertyOp37
 70
     1
102
RTVSPropertyOp38
 70
     1
102
RTVSPropertyOp39
 70
     1
102
RTVSPropertyOp40
 70
     1
102
RTVSPropertyOp41
 70
     1
102
RTVSPropertyOp42
 70
     1
102
RTVSPropertyOp43
 70
     1
102
RTVSPropertyOp44
 70
     1
102
RTVSPropertyOp45
 70
     1
102
RTVSPropertyOp46
 70
     1
102
RTVSPropertyOp47
 70
     1
102
RTVSPropertyOp48
 70
     1
102
RTVSPropertyOp49
 70
     1
102
RTVSPropertyOp50
 70
     1
102
RTVSPropertyOp51
 70
     0
102
RTVSPropertyOp52
 70
     0
102
RTVSPropertyOp53
 70
     1
102
RTVSPropertyOp54
 70
     1
102
RTVSPropertyOp55
 70
     1
102
RTVSPropertyOp56
 70
     1
102
RTVSPropertyOp57
 70
     1
102
RTVSPropertyOp58
 70
     1
102
RTVSPropertyOp59
 70
     1
102
RTVSPropertyOp60
 70
     1
102
RTVSPropertyOp61
 70
     1
102
RTVSPropertyOp62
 70
     1
  0
XRECORD
  5
870
102
{ACAD_REACTORS
330
86F
102
}
330
86F
100
AcDbXrecord
280
     1
102
RTVSPost2010Prop28
280
     0
102
RTVSPost2010PropOp28
 70
     1
102
RTVSPost2010Prop29
280
     1
102
RTVSPost2010PropOp29
 70
     1
102
RTVSPost2010Prop30
280
     1
102
RTVSPost2010PropOp30
 70
     1
102
RTVSPost2010Prop31
280
     0
102
RTVSPost2010PropOp31
 70
     1
102
RTVSPost2010Prop32
280
     0
102
RTVSPost2010PropOp32
 70
     1
102
RTVSPost2010Prop33
280
     0
102
RTVSPost2010PropOp33
 70
     1
102
RTVSPost2010Prop34
280
     0
102
RTVSPost2010PropOp34
 70
     1
102
RTVSPost2010Prop35
280
     0
102
RTVSPost2010PropOp35
 70
     1
102
RTVSPost2010Prop36
280
     0
102
RTVSPost2010PropOp36
 70
     1
102
RTVSPost2010Prop37
 90
       50
102
RTVSPost2010PropOp37
 70
     1
102
RTVSPost2010Prop38
140
0.0
102
RTVSPost2010PropOp38
 70
     1
102
RTVSPost2010Prop39
140
1.0
102
RTVSPost2010PropOp39
 70
     1
102
RTVSPost2010Prop40
 90
        0
102
RTVSPost2010PropOp40
 70
     1
102
RTVSPost2010Prop41ColorIndex
 90
       18
102
RTVSPost2010Prop41ColorRGB
 90
        0
102
RTVSPost2010PropOp41
 70
     1
102
RTVSPost2010Prop42
 90
       50
102
RTVSPost2010PropOp42
 70
     1
102
RTVSPost2010Prop43
 90
        3
102
RTVSPost2010PropOp43
 70
     1
102
RTVSPost2010Prop44ColorIndex
 90
        5
102
RTVSPost2010Prop44ColorRGB
 90
      255
102
RTVSPost2010PropOp44
 70
     1
102
RTVSPost2010Prop45
280
     0
102
RTVSPost2010PropOp45
 70
     1
102
RTVSPost2010Prop46
 90
       50
102
RTVSPost2010PropOp46
 70
     1
102
RTVSPost2010Prop47
 90
       50
102
RTVSPost2010PropOp47
 70
     1
102
RTVSPost2010Prop48
 90
       50
102
RTVSPost2010PropOp48
 70
     1
102
RTVSPost2010Prop49
280
     0
102
RTVSPost2010PropOp49
 70
     1
102
RTVSPost2010Prop50
 90
       50
102
RTVSPost2010PropOp50
 70
     1
102
RTVSPost2010Prop51ColorIndex
 90
      256
102
RTVSPost2010Prop51ColorRGB
 90
-16777216
102
RTVSPost2010PropOp51
 70
     0
102
RTVSPost2010Prop52
140
1.0
102
RTVSPost2010PropOp52
 70
     0
102
RTVSPost2010Prop53
 90
        2
102
RTVSPost2010PropOp53
 70
     1
102
RTVSPost2010Prop54
  1
strokes_ogs.tif
102
RTVSPost2010PropOp54
 70
     1
102
RTVSPost2010Prop55
280
     0
102
RTVSPost2010PropOp55
 70
     1
102
RTVSPost2010Prop56
140
1.0
102
RTVSPost2010PropOp56
 70
     1
102
RTVSPost2010Prop57
140
1.0
102
RTVSPost2010PropOp57
 70
     1
102
RTVSPropertyOp0
 70
     1
102
RTVSPropertyOp1
 70
     1
102
RTVSPropertyOp2
 70
     1
102
RTVSPropertyOp3
 70
     1
102
RTVSPropertyOp4
 70
     1
102
RTVSPropertyOp5
 70
     1
102
RTVSPropertyOp6
 70
     1
102
RTVSPropertyOp7
 70
     1
102
RTVSPropertyOp8
 70
     1
102
RTVSPropertyOp9
 70
     1
102
RTVSPropertyOp10
 70
     1
102
RTVSPropertyOp11
 70
     1
102
RTVSPropertyOp12
 70
     1
102
RTVSPropertyOp13
 70
     1
102
RTVSPropertyOp14
 70
     1
102
RTVSPropertyOp15
 70
     1
102
RTVSPropertyOp16
 70
     1
102
RTVSPropertyOp17
 70
     1
102
RTVSPropertyOp18
 70
     1
102
RTVSPropertyOp19
 70
     1
102
RTVSPropertyOp20
 70
     1
102
RTVSPropertyOp21
 70
     1
102
RTVSPropertyOp22
 70
     1
102
RTVSPropertyOp23
 70
     1
102
RTVSPropertyOp24
 70
     1
102
RTVSPropertyOp25
 70
     1
102
RTVSPropertyOp26
 70
     1
102
RTVSPropertyOp27
 70
     1
102
RTVSPropertyOp28
 70
     1
102
RTVSPropertyOp29
 70
     1
102
RTVSPropertyOp30
 70
     1
102
RTVSPropertyOp31
 70
     1
102
RTVSPropertyOp32
 70
     1
102
RTVSPropertyOp33
 70
     1
102
RTVSPropertyOp34
 70
     1
102
RTVSPropertyOp35
 70
     1
102
RTVSPropertyOp36
 70
     1
102
RTVSPropertyOp37
 70
     1
102
RTVSPropertyOp38
 70
     1
102
RTVSPropertyOp39
 70
     1
102
RTVSPropertyOp40
 70
     1
102
RTVSPropertyOp41
 70
     1
102
RTVSPropertyOp42
 70
     1
102
RTVSPropertyOp43
 70
     1
102
RTVSPropertyOp44
 70
     1
102
RTVSPropertyOp45
 70
     1
102
RTVSPropertyOp46
 70
     1
102
RTVSPropertyOp47
 70
     1
102
RTVSPropertyOp48
 70
     1
102
RTVSPropertyOp49
 70
     1
102
RTVSPropertyOp50
 70
     1
102
RTVSPropertyOp51
 70
     0
102
RTVSPropertyOp52
 70
     0
102
RTVSPropertyOp53
 70
     1
102
RTVSPropertyOp54
 70
     1
102
RTVSPropertyOp55
 70
     1
102
RTVSPropertyOp56
 70
     1
102
RTVSPropertyOp57
 70
     1
102
RTVSPropertyOp58
 70
     1
102
RTVSPropertyOp59
 70
     1
102
RTVSPropertyOp60
 70
     1
102
RTVSPropertyOp61
 70
     1
102
RTVSPropertyOp62
 70
     1
  0
XRECORD
  5
844
102
{ACAD_REACTORS
330
843
102
}
330
843
100
AcDbXrecord
280
     1
102
RTVSPost2010Prop28
280
     0
102
RTVSPost2010PropOp28
 70
     1
102
RTVSPost2010Prop29
280
     1
102
RTVSPost2010PropOp29
 70
     1
102
RTVSPost2010Prop30
280
     1
102
RTVSPost2010PropOp30
 70
     1
102
RTVSPost2010Prop31
280
     0
102
RTVSPost2010PropOp31
 70
     1
102
RTVSPost2010Prop32
280
     0
102
RTVSPost2010PropOp32
 70
     1
102
RTVSPost2010Prop33
280
     0
102
RTVSPost2010PropOp33
 70
     1
102
RTVSPost2010Prop34
280
     0
102
RTVSPost2010PropOp34
 70
     1
102
RTVSPost2010Prop35
280
     0
102
RTVSPost2010PropOp35
 70
     1
102
RTVSPost2010Prop36
280
     0
102
RTVSPost2010PropOp36
 70
     1
102
RTVSPost2010Prop37
 90
       50
102
RTVSPost2010PropOp37
 70
     1
102
RTVSPost2010Prop38
140
0.0
102
RTVSPost2010PropOp38
 70
     1
102
RTVSPost2010Prop39
140
1.0
102
RTVSPost2010PropOp39
 70
     1
102
RTVSPost2010Prop40
 90
        0
102
RTVSPost2010PropOp40
 70
     1
102
RTVSPost2010Prop41ColorIndex
 90
       18
102
RTVSPost2010Prop41ColorRGB
 90
        0
102
RTVSPost2010PropOp41
 70
     1
102
RTVSPost2010Prop42
 90
       50
102
RTVSPost2010PropOp42
 70
     1
102
RTVSPost2010Prop43
 90
        3
102
RTVSPost2010PropOp43
 70
     1
102
RTVSPost2010Prop44ColorIndex
 90
        5
102
RTVSPost2010Prop44ColorRGB
 90
      255
102
RTVSPost2010PropOp44
 70
     1
102
RTVSPost2010Prop45
280
     0
102
RTVSPost2010PropOp45
 70
     1
102
RTVSPost2010Prop46
 90
       50
102
RTVSPost2010PropOp46
 70
     1
102
RTVSPost2010Prop47
 90
       50
102
RTVSPost2010PropOp47
 70
     1
102
RTVSPost2010Prop48
 90
       50
102
RTVSPost2010PropOp48
 70
     1
102
RTVSPost2010Prop49
280
     0
102
RTVSPost2010PropOp49
 70
     1
102
RTVSPost2010Prop50
 90
       50
102
RTVSPost2010PropOp50
 70
     1
102
RTVSPost2010Prop51ColorIndex
 90
      256
102
RTVSPost2010Prop51ColorRGB
 90
-16777216
102
RTVSPost2010PropOp51
 70
     0
102
RTVSPost2010Prop52
140
1.0
102
RTVSPost2010PropOp52
 70
     0
102
RTVSPost2010Prop53
 90
        2
102
RTVSPost2010PropOp53
 70
     1
102
RTVSPost2010Prop54
  1
strokes_ogs.tif
102
RTVSPost2010PropOp54
 70
     1
102
RTVSPost2010Prop55
280
     0
102
RTVSPost2010PropOp55
 70
     1
102
RTVSPost2010Prop56
140
1.0
102
RTVSPost2010PropOp56
 70
     1
102
RTVSPost2010Prop57
140
1.0
102
RTVSPost2010PropOp57
 70
     1
102
RTVSPropertyOp0
 70
     1
102
RTVSPropertyOp1
 70
     1
102
RTVSPropertyOp2
 70
     1
102
RTVSPropertyOp3
 70
     1
102
RTVSPropertyOp4
 70
     1
102
RTVSPropertyOp5
 70
     1
102
RTVSPropertyOp6
 70
     1
102
RTVSPropertyOp7
 70
     1
102
RTVSPropertyOp8
 70
     1
102
RTVSPropertyOp9
 70
     1
102
RTVSPropertyOp10
 70
     1
102
RTVSPropertyOp11
 70
     1
102
RTVSPropertyOp12
 70
     1
102
RTVSPropertyOp13
 70
     1
102
RTVSPropertyOp14
 70
     1
102
RTVSPropertyOp15
 70
     1
102
RTVSPropertyOp16
 70
     1
102
RTVSPropertyOp17
 70
     1
102
RTVSPropertyOp18
 70
     1
102
RTVSPropertyOp19
 70
     1
102
RTVSPropertyOp20
 70
     1
102
RTVSPropertyOp21
 70
     1
102
RTVSPropertyOp22
 70
     1
102
RTVSPropertyOp23
 70
     1
102
RTVSPropertyOp24
 70
     1
102
RTVSPropertyOp25
 70
     1
102
RTVSPropertyOp26
 70
     1
102
RTVSPropertyOp27
 70
     1
102
RTVSPropertyOp28
 70
     1
102
RTVSPropertyOp29
 70
     1
102
RTVSPropertyOp30
 70
     1
102
RTVSPropertyOp31
 70
     1
102
RTVSPropertyOp32
 70
     1
102
RTVSPropertyOp33
 70
     1
102
RTVSPropertyOp34
 70
     1
102
RTVSPropertyOp35
 70
     1
102
RTVSPropertyOp36
 70
     1
102
RTVSPropertyOp37
 70
     1
102
RTVSPropertyOp38
 70
     1
102
RTVSPropertyOp39
 70
     1
102
RTVSPropertyOp40
 70
     1
102
RTVSPropertyOp41
 70
     1
102
RTVSPropertyOp42
 70
     1
102
RTVSPropertyOp43
 70
     1
102
RTVSPropertyOp44
 70
     1
102
RTVSPropertyOp45
 70
     1
102
RTVSPropertyOp46
 70
     1
102
RTVSPropertyOp47
 70
     1
102
RTVSPropertyOp48
 70
     1
102
RTVSPropertyOp49
 70
     1
102
RTVSPropertyOp50
 70
     1
102
RTVSPropertyOp51
 70
     0
102
RTVSPropertyOp52
 70
     0
102
RTVSPropertyOp53
 70
     1
102
RTVSPropertyOp54
 70
     1
102
RTVSPropertyOp55
 70
     1
102
RTVSPropertyOp56
 70
     1
102
RTVSPropertyOp57
 70
     1
102
RTVSPropertyOp58
 70
     1
102
RTVSPropertyOp59
 70
     1
102
RTVSPropertyOp60
 70
     1
102
RTVSPropertyOp61
 70
     1
102
RTVSPropertyOp62
 70
     1
  0
XRECORD
  5
852
102
{ACAD_REACTORS
330
851
102
}
330
851
100
AcDbXrecord
280
     1
102
RTVSPost2010Prop28
280
     0
102
RTVSPost2010PropOp28
 70
     1
102
RTVSPost2010Prop29
280
     1
102
RTVSPost2010PropOp29
 70
     1
102
RTVSPost2010Prop30
280
     1
102
RTVSPost2010PropOp30
 70
     1
102
RTVSPost2010Prop31
280
     0
102
RTVSPost2010PropOp31
 70
     1
102
RTVSPost2010Prop32
280
     0
102
RTVSPost2010PropOp32
 70
     1
102
RTVSPost2010Prop33
280
     0
102
RTVSPost2010PropOp33
 70
     1
102
RTVSPost2010Prop34
280
     0
102
RTVSPost2010PropOp34
 70
     1
102
RTVSPost2010Prop35
280
     0
102
RTVSPost2010PropOp35
 70
     1
102
RTVSPost2010Prop36
280
     0
102
RTVSPost2010PropOp36
 70
     1
102
RTVSPost2010Prop37
 90
       50
102
RTVSPost2010PropOp37
 70
     1
102
RTVSPost2010Prop38
140
0.0
102
RTVSPost2010PropOp38
 70
     1
102
RTVSPost2010Prop39
140
1.0
102
RTVSPost2010PropOp39
 70
     1
102
RTVSPost2010Prop40
 90
        0
102
RTVSPost2010PropOp40
 70
     1
102
RTVSPost2010Prop41ColorIndex
 90
       18
102
RTVSPost2010Prop41ColorRGB
 90
        0
102
RTVSPost2010PropOp41
 70
     1
102
RTVSPost2010Prop42
 90
       50
102
RTVSPost2010PropOp42
 70
     1
102
RTVSPost2010Prop43
 90
        3
102
RTVSPost2010PropOp43
 70
     1
102
RTVSPost2010Prop44ColorIndex
 90
        5
102
RTVSPost2010Prop44ColorRGB
 90
      255
102
RTVSPost2010PropOp44
 70
     1
102
RTVSPost2010Prop45
280
     0
102
RTVSPost2010PropOp45
 70
     1
102
RTVSPost2010Prop46
 90
       50
102
RTVSPost2010PropOp46
 70
     1
102
RTVSPost2010Prop47
 90
       50
102
RTVSPost2010PropOp47
 70
     1
102
RTVSPost2010Prop48
 90
       50
102
RTVSPost2010PropOp48
 70
     1
102
RTVSPost2010Prop49
280
     0
102
RTVSPost2010PropOp49
 70
     1
102
RTVSPost2010Prop50
 90
       50
102
RTVSPost2010PropOp50
 70
     1
102
RTVSPost2010Prop51ColorIndex
 90
      256
102
RTVSPost2010Prop51ColorRGB
 90
-16777216
102
RTVSPost2010PropOp51
 70
     0
102
RTVSPost2010Prop52
140
1.0
102
RTVSPost2010PropOp52
 70
     0
102
RTVSPost2010Prop53
 90
        2
102
RTVSPost2010PropOp53
 70
     1
102
RTVSPost2010Prop54
  1
strokes_ogs.tif
102
RTVSPost2010PropOp54
 70
     1
102
RTVSPost2010Prop55
280
     0
102
RTVSPost2010PropOp55
 70
     1
102
RTVSPost2010Prop56
140
1.0
102
RTVSPost2010PropOp56
 70
     1
102
RTVSPost2010Prop57
140
1.0
102
RTVSPost2010PropOp57
 70
     1
102
RTVSPropertyOp0
 70
     1
102
RTVSPropertyOp1
 70
     1
102
RTVSPropertyOp2
 70
     1
102
RTVSPropertyOp3
 70
     1
102
RTVSPropertyOp4
 70
     1
102
RTVSPropertyOp5
 70
     1
102
RTVSPropertyOp6
 70
     1
102
RTVSPropertyOp7
 70
     1
102
RTVSPropertyOp8
 70
     1
102
RTVSPropertyOp9
 70
     1
102
RTVSPropertyOp10
 70
     1
102
RTVSPropertyOp11
 70
     1
102
RTVSPropertyOp12
 70
     1
102
RTVSPropertyOp13
 70
     1
102
RTVSPropertyOp14
 70
     1
102
RTVSPropertyOp15
 70
     1
102
RTVSPropertyOp16
 70
     1
102
RTVSPropertyOp17
 70
     1
102
RTVSPropertyOp18
 70
     1
102
RTVSPropertyOp19
 70
     1
102
RTVSPropertyOp20
 70
     1
102
RTVSPropertyOp21
 70
     1
102
RTVSPropertyOp22
 70
     1
102
RTVSPropertyOp23
 70
     1
102
RTVSPropertyOp24
 70
     1
102
RTVSPropertyOp25
 70
     1
102
RTVSPropertyOp26
 70
     1
102
RTVSPropertyOp27
 70
     1
102
RTVSPropertyOp28
 70
     1
102
RTVSPropertyOp29
 70
     1
102
RTVSPropertyOp30
 70
     1
102
RTVSPropertyOp31
 70
     1
102
RTVSPropertyOp32
 70
     1
102
RTVSPropertyOp33
 70
     1
102
RTVSPropertyOp34
 70
     1
102
RTVSPropertyOp35
 70
     1
102
RTVSPropertyOp36
 70
     1
102
RTVSPropertyOp37
 70
     1
102
RTVSPropertyOp38
 70
     1
102
RTVSPropertyOp39
 70
     1
102
RTVSPropertyOp40
 70
     1
102
RTVSPropertyOp41
 70
     1
102
RTVSPropertyOp42
 70
     1
102
RTVSPropertyOp43
 70
     1
102
RTVSPropertyOp44
 70
     1
102
RTVSPropertyOp45
 70
     1
102
RTVSPropertyOp46
 70
     1
102
RTVSPropertyOp47
 70
     1
102
RTVSPropertyOp48
 70
     1
102
RTVSPropertyOp49
 70
     1
102
RTVSPropertyOp50
 70
     1
102
RTVSPropertyOp51
 70
     0
102
RTVSPropertyOp52
 70
     0
102
RTVSPropertyOp53
 70
     1
102
RTVSPropertyOp54
 70
     1
102
RTVSPropertyOp55
 70
     1
102
RTVSPropertyOp56
 70
     1
102
RTVSPropertyOp57
 70
     1
102
RTVSPropertyOp58
 70
     1
102
RTVSPropertyOp59
 70
     1
102
RTVSPropertyOp60
 70
     1
102
RTVSPropertyOp61
 70
     1
102
RTVSPropertyOp62
 70
     1
  0
XRECORD
  5
85A
102
{ACAD_REACTORS
330
859
102
}
330
859
100
AcDbXrecord
280
     1
102
RTVSPost2010Prop28
280
     0
102
RTVSPost2010PropOp28
 70
     1
102
RTVSPost2010Prop29
280
     1
102
RTVSPost2010PropOp29
 70
     1
102
RTVSPost2010Prop30
280
     1
102
RTVSPost2010PropOp30
 70
     1
102
RTVSPost2010Prop31
280
     0
102
RTVSPost2010PropOp31
 70
     1
102
RTVSPost2010Prop32
280
     0
102
RTVSPost2010PropOp32
 70
     1
102
RTVSPost2010Prop33
280
     0
102
RTVSPost2010PropOp33
 70
     1
102
RTVSPost2010Prop34
280
     0
102
RTVSPost2010PropOp34
 70
     1
102
RTVSPost2010Prop35
280
     0
102
RTVSPost2010PropOp35
 70
     1
102
RTVSPost2010Prop36
280
     0
102
RTVSPost2010PropOp36
 70
     1
102
RTVSPost2010Prop37
 90
       50
102
RTVSPost2010PropOp37
 70
     1
102
RTVSPost2010Prop38
140
0.0
102
RTVSPost2010PropOp38
 70
     1
102
RTVSPost2010Prop39
140
1.0
102
RTVSPost2010PropOp39
 70
     1
102
RTVSPost2010Prop40
 90
        0
102
RTVSPost2010PropOp40
 70
     1
102
RTVSPost2010Prop41ColorIndex
 90
       18
102
RTVSPost2010Prop41ColorRGB
 90
        0
102
RTVSPost2010PropOp41
 70
     1
102
RTVSPost2010Prop42
 90
       50
102
RTVSPost2010PropOp42
 70
     1
102
RTVSPost2010Prop43
 90
        3
102
RTVSPost2010PropOp43
 70
     1
102
RTVSPost2010Prop44ColorIndex
 90
        5
102
RTVSPost2010Prop44ColorRGB
 90
      255
102
RTVSPost2010PropOp44
 70
     1
102
RTVSPost2010Prop45
280
     0
102
RTVSPost2010PropOp45
 70
     1
102
RTVSPost2010Prop46
 90
       50
102
RTVSPost2010PropOp46
 70
     1
102
RTVSPost2010Prop47
 90
       50
102
RTVSPost2010PropOp47
 70
     1
102
RTVSPost2010Prop48
 90
       50
102
RTVSPost2010PropOp48
 70
     1
102
RTVSPost2010Prop49
280
     0
102
RTVSPost2010PropOp49
 70
     1
102
RTVSPost2010Prop50
 90
       50
102
RTVSPost2010PropOp50
 70
     1
102
RTVSPost2010Prop51ColorIndex
 90
      256
102
RTVSPost2010Prop51ColorRGB
 90
-16777216
102
RTVSPost2010PropOp51
 70
     0
102
RTVSPost2010Prop52
140
1.0
102
RTVSPost2010PropOp52
 70
     0
102
RTVSPost2010Prop53
 90
        2
102
RTVSPost2010PropOp53
 70
     1
102
RTVSPost2010Prop54
  1
strokes_ogs.tif
102
RTVSPost2010PropOp54
 70
     1
102
RTVSPost2010Prop55
280
     0
102
RTVSPost2010PropOp55
 70
     1
102
RTVSPost2010Prop56
140
1.0
102
RTVSPost2010PropOp56
 70
     1
102
RTVSPost2010Prop57
140
1.0
102
RTVSPost2010PropOp57
 70
     1
102
RTVSPropertyOp0
 70
     1
102
RTVSPropertyOp1
 70
     1
102
RTVSPropertyOp2
 70
     1
102
RTVSPropertyOp3
 70
     1
102
RTVSPropertyOp4
 70
     1
102
RTVSPropertyOp5
 70
     1
102
RTVSPropertyOp6
 70
     1
102
RTVSPropertyOp7
 70
     1
102
RTVSPropertyOp8
 70
     1
102
RTVSPropertyOp9
 70
     1
102
RTVSPropertyOp10
 70
     1
102
RTVSPropertyOp11
 70
     1
102
RTVSPropertyOp12
 70
     1
102
RTVSPropertyOp13
 70
     1
102
RTVSPropertyOp14
 70
     1
102
RTVSPropertyOp15
 70
     1
102
RTVSPropertyOp16
 70
     1
102
RTVSPropertyOp17
 70
     1
102
RTVSPropertyOp18
 70
     1
102
RTVSPropertyOp19
 70
     1
102
RTVSPropertyOp20
 70
     1
102
RTVSPropertyOp21
 70
     1
102
RTVSPropertyOp22
 70
     1
102
RTVSPropertyOp23
 70
     1
102
RTVSPropertyOp24
 70
     1
102
RTVSPropertyOp25
 70
     1
102
RTVSPropertyOp26
 70
     1
102
RTVSPropertyOp27
 70
     1
102
RTVSPropertyOp28
 70
     1
102
RTVSPropertyOp29
 70
     1
102
RTVSPropertyOp30
 70
     1
102
RTVSPropertyOp31
 70
     1
102
RTVSPropertyOp32
 70
     1
102
RTVSPropertyOp33
 70
     1
102
RTVSPropertyOp34
 70
     1
102
RTVSPropertyOp35
 70
     1
102
RTVSPropertyOp36
 70
     1
102
RTVSPropertyOp37
 70
     1
102
RTVSPropertyOp38
 70
     1
102
RTVSPropertyOp39
 70
     1
102
RTVSPropertyOp40
 70
     1
102
RTVSPropertyOp41
 70
     1
102
RTVSPropertyOp42
 70
     1
102
RTVSPropertyOp43
 70
     1
102
RTVSPropertyOp44
 70
     1
102
RTVSPropertyOp45
 70
     1
102
RTVSPropertyOp46
 70
     1
102
RTVSPropertyOp47
 70
     1
102
RTVSPropertyOp48
 70
     1
102
RTVSPropertyOp49
 70
     1
102
RTVSPropertyOp50
 70
     1
102
RTVSPropertyOp51
 70
     0
102
RTVSPropertyOp52
 70
     0
102
RTVSPropertyOp53
 70
     1
102
RTVSPropertyOp54
 70
     1
102
RTVSPropertyOp55
 70
     1
102
RTVSPropertyOp56
 70
     1
102
RTVSPropertyOp57
 70
     1
102
RTVSPropertyOp58
 70
     1
102
RTVSPropertyOp59
 70
     1
102
RTVSPropertyOp60
 70
     1
102
RTVSPropertyOp61
 70
     1
102
RTVSPropertyOp62
 70
     1
  0
XRECORD
  5
84C
102
{ACAD_REACTORS
330
84B
102
}
330
84B
100
AcDbXrecord
280
     1
102
RTVSPost2010Prop28
280
     0
102
RTVSPost2010PropOp28
 70
     1
102
RTVSPost2010Prop29
280
     1
102
RTVSPost2010PropOp29
 70
     1
102
RTVSPost2010Prop30
280
     1
102
RTVSPost2010PropOp30
 70
     1
102
RTVSPost2010Prop31
280
     0
102
RTVSPost2010PropOp31
 70
     1
102
RTVSPost2010Prop32
280
     0
102
RTVSPost2010PropOp32
 70
     1
102
RTVSPost2010Prop33
280
     0
102
RTVSPost2010PropOp33
 70
     1
102
RTVSPost2010Prop34
280
     0
102
RTVSPost2010PropOp34
 70
     1
102
RTVSPost2010Prop35
280
     0
102
RTVSPost2010PropOp35
 70
     1
102
RTVSPost2010Prop36
280
     0
102
RTVSPost2010PropOp36
 70
     1
102
RTVSPost2010Prop37
 90
       50
102
RTVSPost2010PropOp37
 70
     1
102
RTVSPost2010Prop38
140
0.0
102
RTVSPost2010PropOp38
 70
     1
102
RTVSPost2010Prop39
140
1.0
102
RTVSPost2010PropOp39
 70
     1
102
RTVSPost2010Prop40
 90
        0
102
RTVSPost2010PropOp40
 70
     1
102
RTVSPost2010Prop41ColorIndex
 90
       18
102
RTVSPost2010Prop41ColorRGB
 90
        0
102
RTVSPost2010PropOp41
 70
     1
102
RTVSPost2010Prop42
 90
       50
102
RTVSPost2010PropOp42
 70
     1
102
RTVSPost2010Prop43
 90
        3
102
RTVSPost2010PropOp43
 70
     1
102
RTVSPost2010Prop44ColorIndex
 90
        5
102
RTVSPost2010Prop44ColorRGB
 90
      255
102
RTVSPost2010PropOp44
 70
     1
102
RTVSPost2010Prop45
280
     0
102
RTVSPost2010PropOp45
 70
     1
102
RTVSPost2010Prop46
 90
       50
102
RTVSPost2010PropOp46
 70
     1
102
RTVSPost2010Prop47
 90
       50
102
RTVSPost2010PropOp47
 70
     1
102
RTVSPost2010Prop48
 90
       50
102
RTVSPost2010PropOp48
 70
     1
102
RTVSPost2010Prop49
280
     0
102
RTVSPost2010PropOp49
 70
     1
102
RTVSPost2010Prop50
 90
       50
102
RTVSPost2010PropOp50
 70
     1
102
RTVSPost2010Prop51ColorIndex
 90
      256
102
RTVSPost2010Prop51ColorRGB
 90
-16777216
102
RTVSPost2010PropOp51
 70
     0
102
RTVSPost2010Prop52
140
1.0
102
RTVSPost2010PropOp52
 70
     0
102
RTVSPost2010Prop53
 90
        2
102
RTVSPost2010PropOp53
 70
     1
102
RTVSPost2010Prop54
  1
strokes_ogs.tif
102
RTVSPost2010PropOp54
 70
     1
102
RTVSPost2010Prop55
280
     0
102
RTVSPost2010PropOp55
 70
     1
102
RTVSPost2010Prop56
140
1.0
102
RTVSPost2010PropOp56
 70
     1
102
RTVSPost2010Prop57
140
1.0
102
RTVSPost2010PropOp57
 70
     1
102
RTVSPropertyOp0
 70
     1
102
RTVSPropertyOp1
 70
     1
102
RTVSPropertyOp2
 70
     1
102
RTVSPropertyOp3
 70
     1
102
RTVSPropertyOp4
 70
     1
102
RTVSPropertyOp5
 70
     1
102
RTVSPropertyOp6
 70
     1
102
RTVSPropertyOp7
 70
     1
102
RTVSPropertyOp8
 70
     1
102
RTVSPropertyOp9
 70
     1
102
RTVSPropertyOp10
 70
     1
102
RTVSPropertyOp11
 70
     1
102
RTVSPropertyOp12
 70
     1
102
RTVSPropertyOp13
 70
     1
102
RTVSPropertyOp14
 70
     1
102
RTVSPropertyOp15
 70
     1
102
RTVSPropertyOp16
 70
     1
102
RTVSPropertyOp17
 70
     1
102
RTVSPropertyOp18
 70
     1
102
RTVSPropertyOp19
 70
     1
102
RTVSPropertyOp20
 70
     1
102
RTVSPropertyOp21
 70
     1
102
RTVSPropertyOp22
 70
     1
102
RTVSPropertyOp23
 70
     1
102
RTVSPropertyOp24
 70
     1
102
RTVSPropertyOp25
 70
     1
102
RTVSPropertyOp26
 70
     1
102
RTVSPropertyOp27
 70
     1
102
RTVSPropertyOp28
 70
     1
102
RTVSPropertyOp29
 70
     1
102
RTVSPropertyOp30
 70
     1
102
RTVSPropertyOp31
 70
     1
102
RTVSPropertyOp32
 70
     1
102
RTVSPropertyOp33
 70
     1
102
RTVSPropertyOp34
 70
     1
102
RTVSPropertyOp35
 70
     1
102
RTVSPropertyOp36
 70
     1
102
RTVSPropertyOp37
 70
     1
102
RTVSPropertyOp38
 70
     1
102
RTVSPropertyOp39
 70
     1
102
RTVSPropertyOp40
 70
     1
102
RTVSPropertyOp41
 70
     1
102
RTVSPropertyOp42
 70
     1
102
RTVSPropertyOp43
 70
     1
102
RTVSPropertyOp44
 70
     1
102
RTVSPropertyOp45
 70
     1
102
RTVSPropertyOp46
 70
     1
102
RTVSPropertyOp47
 70
     1
102
RTVSPropertyOp48
 70
     1
102
RTVSPropertyOp49
 70
     1
102
RTVSPropertyOp50
 70
     1
102
RTVSPropertyOp51
 70
     0
102
RTVSPropertyOp52
 70
     0
102
RTVSPropertyOp53
 70
     1
102
RTVSPropertyOp54
 70
     1
102
RTVSPropertyOp55
 70
     1
102
RTVSPropertyOp56
 70
     1
102
RTVSPropertyOp57
 70
     1
102
RTVSPropertyOp58
 70
     1
102
RTVSPropertyOp59
 70
     1
102
RTVSPropertyOp60
 70
     1
102
RTVSPropertyOp61
 70
     1
102
RTVSPropertyOp62
 70
     1
  0
XRECORD
  5
850
102
{ACAD_REACTORS
330
84F
102
}
330
84F
100
AcDbXrecord
280
     1
102
RTVSPost2010Prop28
280
     0
102
RTVSPost2010PropOp28
 70
     1
102
RTVSPost2010Prop29
280
     1
102
RTVSPost2010PropOp29
 70
     1
102
RTVSPost2010Prop30
280
     1
102
RTVSPost2010PropOp30
 70
     1
102
RTVSPost2010Prop31
280
     0
102
RTVSPost2010PropOp31
 70
     1
102
RTVSPost2010Prop32
280
     0
102
RTVSPost2010PropOp32
 70
     1
102
RTVSPost2010Prop33
280
     0
102
RTVSPost2010PropOp33
 70
     1
102
RTVSPost2010Prop34
280
     0
102
RTVSPost2010PropOp34
 70
     1
102
RTVSPost2010Prop35
280
     0
102
RTVSPost2010PropOp35
 70
     1
102
RTVSPost2010Prop36
280
     0
102
RTVSPost2010PropOp36
 70
     1
102
RTVSPost2010Prop37
 90
       50
102
RTVSPost2010PropOp37
 70
     1
102
RTVSPost2010Prop38
140
0.0
102
RTVSPost2010PropOp38
 70
     1
102
RTVSPost2010Prop39
140
1.0
102
RTVSPost2010PropOp39
 70
     1
102
RTVSPost2010Prop40
 90
        0
102
RTVSPost2010PropOp40
 70
     1
102
RTVSPost2010Prop41ColorIndex
 90
       18
102
RTVSPost2010Prop41ColorRGB
 90
        0
102
RTVSPost2010PropOp41
 70
     1
102
RTVSPost2010Prop42
 90
       50
102
RTVSPost2010PropOp42
 70
     1
102
RTVSPost2010Prop43
 90
        3
102
RTVSPost2010PropOp43
 70
     1
102
RTVSPost2010Prop44ColorIndex
 90
        5
102
RTVSPost2010Prop44ColorRGB
 90
      255
102
RTVSPost2010PropOp44
 70
     1
102
RTVSPost2010Prop45
280
     0
102
RTVSPost2010PropOp45
 70
     1
102
RTVSPost2010Prop46
 90
       50
102
RTVSPost2010PropOp46
 70
     1
102
RTVSPost2010Prop47
 90
       50
102
RTVSPost2010PropOp47
 70
     1
102
RTVSPost2010Prop48
 90
       50
102
RTVSPost2010PropOp48
 70
     1
102
RTVSPost2010Prop49
280
     0
102
RTVSPost2010PropOp49
 70
     1
102
RTVSPost2010Prop50
 90
       50
102
RTVSPost2010PropOp50
 70
     1
102
RTVSPost2010Prop51ColorIndex
 90
      256
102
RTVSPost2010Prop51ColorRGB
 90
-16777216
102
RTVSPost2010PropOp51
 70
     0
102
RTVSPost2010Prop52
140
1.0
102
RTVSPost2010PropOp52
 70
     0
102
RTVSPost2010Prop53
 90
        2
102
RTVSPost2010PropOp53
 70
     1
102
RTVSPost2010Prop54
  1
strokes_ogs.tif
102
RTVSPost2010PropOp54
 70
     1
102
RTVSPost2010Prop55
280
     0
102
RTVSPost2010PropOp55
 70
     1
102
RTVSPost2010Prop56
140
1.0
102
RTVSPost2010PropOp56
 70
     1
102
RTVSPost2010Prop57
140
1.0
102
RTVSPost2010PropOp57
 70
     1
102
RTVSPropertyOp0
 70
     1
102
RTVSPropertyOp1
 70
     1
102
RTVSPropertyOp2
 70
     1
102
RTVSPropertyOp3
 70
     1
102
RTVSPropertyOp4
 70
     1
102
RTVSPropertyOp5
 70
     1
102
RTVSPropertyOp6
 70
     1
102
RTVSPropertyOp7
 70
     1
102
RTVSPropertyOp8
 70
     1
102
RTVSPropertyOp9
 70
     1
102
RTVSPropertyOp10
 70
     1
102
RTVSPropertyOp11
 70
     1
102
RTVSPropertyOp12
 70
     1
102
RTVSPropertyOp13
 70
     1
102
RTVSPropertyOp14
 70
     1
102
RTVSPropertyOp15
 70
     1
102
RTVSPropertyOp16
 70
     1
102
RTVSPropertyOp17
 70
     1
102
RTVSPropertyOp18
 70
     1
102
RTVSPropertyOp19
 70
     1
102
RTVSPropertyOp20
 70
     1
102
RTVSPropertyOp21
 70
     1
102
RTVSPropertyOp22
 70
     1
102
RTVSPropertyOp23
 70
     1
102
RTVSPropertyOp24
 70
     1
102
RTVSPropertyOp25
 70
     1
102
RTVSPropertyOp26
 70
     1
102
RTVSPropertyOp27
 70
     1
102
RTVSPropertyOp28
 70
     1
102
RTVSPropertyOp29
 70
     1
102
RTVSPropertyOp30
 70
     1
102
RTVSPropertyOp31
 70
     1
102
RTVSPropertyOp32
 70
     1
102
RTVSPropertyOp33
 70
     1
102
RTVSPropertyOp34
 70
     1
102
RTVSPropertyOp35
 70
     1
102
RTVSPropertyOp36
 70
     1
102
RTVSPropertyOp37
 70
     1
102
RTVSPropertyOp38
 70
     1
102
RTVSPropertyOp39
 70
     1
102
RTVSPropertyOp40
 70
     1
102
RTVSPropertyOp41
 70
     1
102
RTVSPropertyOp42
 70
     1
102
RTVSPropertyOp43
 70
     1
102
RTVSPropertyOp44
 70
     1
102
RTVSPropertyOp45
 70
     1
102
RTVSPropertyOp46
 70
     1
102
RTVSPropertyOp47
 70
     1
102
RTVSPropertyOp48
 70
     1
102
RTVSPropertyOp49
 70
     1
102
RTVSPropertyOp50
 70
     1
102
RTVSPropertyOp51
 70
     0
102
RTVSPropertyOp52
 70
     0
102
RTVSPropertyOp53
 70
     1
102
RTVSPropertyOp54
 70
     1
102
RTVSPropertyOp55
 70
     1
102
RTVSPropertyOp56
 70
     1
102
RTVSPropertyOp57
 70
     1
102
RTVSPropertyOp58
 70
     1
102
RTVSPropertyOp59
 70
     1
102
RTVSPropertyOp60
 70
     1
102
RTVSPropertyOp61
 70
     1
102
RTVSPropertyOp62
 70
     1
  0
XRECORD
  5
860
102
{ACAD_REACTORS
330
85F
102
}
330
85F
100
AcDbXrecord
280
     1
102
RTVSPost2010Prop28
280
     0
102
RTVSPost2010PropOp28
 70
     1
102
RTVSPost2010Prop29
280
     1
102
RTVSPost2010PropOp29
 70
     1
102
RTVSPost2010Prop30
280
     1
102
RTVSPost2010PropOp30
 70
     1
102
RTVSPost2010Prop31
280
     0
102
RTVSPost2010PropOp31
 70
     1
102
RTVSPost2010Prop32
280
     0
102
RTVSPost2010PropOp32
 70
     1
102
RTVSPost2010Prop33
280
     0
102
RTVSPost2010PropOp33
 70
     1
102
RTVSPost2010Prop34
280
     0
102
RTVSPost2010PropOp34
 70
     1
102
RTVSPost2010Prop35
280
     0
102
RTVSPost2010PropOp35
 70
     1
102
RTVSPost2010Prop36
280
     0
102
RTVSPost2010PropOp36
 70
     1
102
RTVSPost2010Prop37
 90
       50
102
RTVSPost2010PropOp37
 70
     1
102
RTVSPost2010Prop38
140
0.0
102
RTVSPost2010PropOp38
 70
     1
102
RTVSPost2010Prop39
140
1.0
102
RTVSPost2010PropOp39
 70
     1
102
RTVSPost2010Prop40
 90
        0
102
RTVSPost2010PropOp40
 70
     1
102
RTVSPost2010Prop41ColorIndex
 90
       18
102
RTVSPost2010Prop41ColorRGB
 90
        0
102
RTVSPost2010PropOp41
 70
     1
102
RTVSPost2010Prop42
 90
       50
102
RTVSPost2010PropOp42
 70
     1
102
RTVSPost2010Prop43
 90
        3
102
RTVSPost2010PropOp43
 70
     1
102
RTVSPost2010Prop44ColorIndex
 90
        5
102
RTVSPost2010Prop44ColorRGB
 90
      255
102
RTVSPost2010PropOp44
 70
     1
102
RTVSPost2010Prop45
280
     0
102
RTVSPost2010PropOp45
 70
     1
102
RTVSPost2010Prop46
 90
       50
102
RTVSPost2010PropOp46
 70
     1
102
RTVSPost2010Prop47
 90
       50
102
RTVSPost2010PropOp47
 70
     1
102
RTVSPost2010Prop48
 90
       50
102
RTVSPost2010PropOp48
 70
     1
102
RTVSPost2010Prop49
280
     0
102
RTVSPost2010PropOp49
 70
     1
102
RTVSPost2010Prop50
 90
       50
102
RTVSPost2010PropOp50
 70
     1
102
RTVSPost2010Prop51ColorIndex
 90
      256
102
RTVSPost2010Prop51ColorRGB
 90
-16777216
102
RTVSPost2010PropOp51
 70
     0
102
RTVSPost2010Prop52
140
1.0
102
RTVSPost2010PropOp52
 70
     0
102
RTVSPost2010Prop53
 90
        2
102
RTVSPost2010PropOp53
 70
     1
102
RTVSPost2010Prop54
  1
strokes_ogs.tif
102
RTVSPost2010PropOp54
 70
     1
102
RTVSPost2010Prop55
280
     0
102
RTVSPost2010PropOp55
 70
     1
102
RTVSPost2010Prop56
140
1.0
102
RTVSPost2010PropOp56
 70
     1
102
RTVSPost2010Prop57
140
1.0
102
RTVSPost2010PropOp57
 70
     1
102
RTVSPropertyOp0
 70
     0
102
RTVSPropertyOp1
 70
     0
102
RTVSPropertyOp2
 70
     0
102
RTVSPropertyOp3
 70
     0
102
RTVSPropertyOp4
 70
     0
102
RTVSPropertyOp5
 70
     0
102
RTVSPropertyOp6
 70
     0
102
RTVSPropertyOp7
 70
     0
102
RTVSPropertyOp8
 70
     0
102
RTVSPropertyOp9
 70
     0
102
RTVSPropertyOp10
 70
     0
102
RTVSPropertyOp11
 70
     0
102
RTVSPropertyOp12
 70
     0
102
RTVSPropertyOp13
 70
     0
102
RTVSPropertyOp14
 70
     2
102
RTVSPropertyOp15
 70
     0
102
RTVSPropertyOp16
 70
     0
102
RTVSPropertyOp17
 70
     0
102
RTVSPropertyOp18
 70
     0
102
RTVSPropertyOp19
 70
     0
102
RTVSPropertyOp20
 70
     0
102
RTVSPropertyOp21
 70
     0
102
RTVSPropertyOp22
 70
     0
102
RTVSPropertyOp23
 70
     0
102
RTVSPropertyOp24
 70
     0
102
RTVSPropertyOp25
 70
     0
102
RTVSPropertyOp26
 70
     0
102
RTVSPropertyOp27
 70
     0
102
RTVSPropertyOp28
 70
     1
102
RTVSPropertyOp29
 70
     1
102
RTVSPropertyOp30
 70
     1
102
RTVSPropertyOp31
 70
     1
102
RTVSPropertyOp32
 70
     1
102
RTVSPropertyOp33
 70
     1
102
RTVSPropertyOp34
 70
     1
102
RTVSPropertyOp35
 70
     1
102
RTVSPropertyOp36
 70
     1
102
RTVSPropertyOp37
 70
     1
102
RTVSPropertyOp38
 70
     1
102
RTVSPropertyOp39
 70
     1
102
RTVSPropertyOp40
 70
     1
102
RTVSPropertyOp41
 70
     1
102
RTVSPropertyOp42
 70
     1
102
RTVSPropertyOp43
 70
     1
102
RTVSPropertyOp44
 70
     1
102
RTVSPropertyOp45
 70
     1
102
RTVSPropertyOp46
 70
     1
102
RTVSPropertyOp47
 70
     1
102
RTVSPropertyOp48
 70
     1
102
RTVSPropertyOp49
 70
     1
102
RTVSPropertyOp50
 70
     1
102
RTVSPropertyOp51
 70
     0
102
RTVSPropertyOp52
 70
     0
102
RTVSPropertyOp53
 70
     1
102
RTVSPropertyOp54
 70
     1
102
RTVSPropertyOp55
 70
     1
102
RTVSPropertyOp56
 70
     1
102
RTVSPropertyOp57
 70
     1
102
RTVSPropertyOp58
 70
     1
102
RTVSPropertyOp59
 70
     1
102
RTVSPropertyOp60
 70
     1
102
RTVSPropertyOp61
 70
     1
102
RTVSPropertyOp62
 70
     1
  0
XRECORD
  5
858
102
{ACAD_REACTORS
330
857
102
}
330
857
100
AcDbXrecord
280
     1
102
RTVSPost2010Prop28
280
     0
102
RTVSPost2010PropOp28
 70
     1
102
RTVSPost2010Prop29
280
     1
102
RTVSPost2010PropOp29
 70
     1
102
RTVSPost2010Prop30
280
     1
102
RTVSPost2010PropOp30
 70
     1
102
RTVSPost2010Prop31
280
     0
102
RTVSPost2010PropOp31
 70
     1
102
RTVSPost2010Prop32
280
     0
102
RTVSPost2010PropOp32
 70
     1
102
RTVSPost2010Prop33
280
     0
102
RTVSPost2010PropOp33
 70
     1
102
RTVSPost2010Prop34
280
     0
102
RTVSPost2010PropOp34
 70
     1
102
RTVSPost2010Prop35
280
     0
102
RTVSPost2010PropOp35
 70
     1
102
RTVSPost2010Prop36
280
     0
102
RTVSPost2010PropOp36
 70
     1
102
RTVSPost2010Prop37
 90
       50
102
RTVSPost2010PropOp37
 70
     1
102
RTVSPost2010Prop38
140
0.0
102
RTVSPost2010PropOp38
 70
     1
102
RTVSPost2010Prop39
140
1.0
102
RTVSPost2010PropOp39
 70
     1
102
RTVSPost2010Prop40
 90
        0
102
RTVSPost2010PropOp40
 70
     1
102
RTVSPost2010Prop41ColorIndex
 90
       18
102
RTVSPost2010Prop41ColorRGB
 90
        0
102
RTVSPost2010PropOp41
 70
     1
102
RTVSPost2010Prop42
 90
       50
102
RTVSPost2010PropOp42
 70
     1
102
RTVSPost2010Prop43
 90
        3
102
RTVSPost2010PropOp43
 70
     1
102
RTVSPost2010Prop44ColorIndex
 90
        5
102
RTVSPost2010Prop44ColorRGB
 90
      255
102
RTVSPost2010PropOp44
 70
     1
102
RTVSPost2010Prop45
280
     0
102
RTVSPost2010PropOp45
 70
     1
102
RTVSPost2010Prop46
 90
       50
102
RTVSPost2010PropOp46
 70
     1
102
RTVSPost2010Prop47
 90
       50
102
RTVSPost2010PropOp47
 70
     1
102
RTVSPost2010Prop48
 90
       50
102
RTVSPost2010PropOp48
 70
     1
102
RTVSPost2010Prop49
280
     0
102
RTVSPost2010PropOp49
 70
     1
102
RTVSPost2010Prop50
 90
       50
102
RTVSPost2010PropOp50
 70
     1
102
RTVSPost2010Prop51ColorIndex
 90
      256
102
RTVSPost2010Prop51ColorRGB
 90
-16777216
102
RTVSPost2010PropOp51
 70
     0
102
RTVSPost2010Prop52
140
1.0
102
RTVSPost2010PropOp52
 70
     0
102
RTVSPost2010Prop53
 90
        2
102
RTVSPost2010PropOp53
 70
     1
102
RTVSPost2010Prop54
  1
strokes_ogs.tif
102
RTVSPost2010PropOp54
 70
     1
102
RTVSPost2010Prop55
280
     0
102
RTVSPost2010PropOp55
 70
     1
102
RTVSPost2010Prop56
140
1.0
102
RTVSPost2010PropOp56
 70
     1
102
RTVSPost2010Prop57
140
1.0
102
RTVSPost2010PropOp57
 70
     1
102
RTVSPropertyOp0
 70
     1
102
RTVSPropertyOp1
 70
     1
102
RTVSPropertyOp2
 70
     1
102
RTVSPropertyOp3
 70
     1
102
RTVSPropertyOp4
 70
     1
102
RTVSPropertyOp5
 70
     1
102
RTVSPropertyOp6
 70
     1
102
RTVSPropertyOp7
 70
     1
102
RTVSPropertyOp8
 70
     1
102
RTVSPropertyOp9
 70
     1
102
RTVSPropertyOp10
 70
     1
102
RTVSPropertyOp11
 70
     1
102
RTVSPropertyOp12
 70
     1
102
RTVSPropertyOp13
 70
     1
102
RTVSPropertyOp14
 70
     1
102
RTVSPropertyOp15
 70
     1
102
RTVSPropertyOp16
 70
     1
102
RTVSPropertyOp17
 70
     1
102
RTVSPropertyOp18
 70
     1
102
RTVSPropertyOp19
 70
     1
102
RTVSPropertyOp20
 70
     1
102
RTVSPropertyOp21
 70
     1
102
RTVSPropertyOp22
 70
     1
102
RTVSPropertyOp23
 70
     1
102
RTVSPropertyOp24
 70
     1
102
RTVSPropertyOp25
 70
     1
102
RTVSPropertyOp26
 70
     1
102
RTVSPropertyOp27
 70
     1
102
RTVSPropertyOp28
 70
     1
102
RTVSPropertyOp29
 70
     1
102
RTVSPropertyOp30
 70
     1
102
RTVSPropertyOp31
 70
     1
102
RTVSPropertyOp32
 70
     1
102
RTVSPropertyOp33
 70
     1
102
RTVSPropertyOp34
 70
     1
102
RTVSPropertyOp35
 70
     1
102
RTVSPropertyOp36
 70
     1
102
RTVSPropertyOp37
 70
     1
102
RTVSPropertyOp38
 70
     1
102
RTVSPropertyOp39
 70
     1
102
RTVSPropertyOp40
 70
     1
102
RTVSPropertyOp41
 70
     1
102
RTVSPropertyOp42
 70
     1
102
RTVSPropertyOp43
 70
     1
102
RTVSPropertyOp44
 70
     1
102
RTVSPropertyOp45
 70
     1
102
RTVSPropertyOp46
 70
     1
102
RTVSPropertyOp47
 70
     1
102
RTVSPropertyOp48
 70
     1
102
RTVSPropertyOp49
 70
     1
102
RTVSPropertyOp50
 70
     1
102
RTVSPropertyOp51
 70
     0
102
RTVSPropertyOp52
 70
     0
102
RTVSPropertyOp53
 70
     1
102
RTVSPropertyOp54
 70
     1
102
RTVSPropertyOp55
 70
     1
102
RTVSPropertyOp56
 70
     1
102
RTVSPropertyOp57
 70
     1
102
RTVSPropertyOp58
 70
     1
102
RTVSPropertyOp59
 70
     1
102
RTVSPropertyOp60
 70
     1
102
RTVSPropertyOp61
 70
     1
102
RTVSPropertyOp62
 70
     1
  0
XRECORD
  5
83C
102
{ACAD_REACTORS
330
83B
102
}
330
83B
100
AcDbXrecord
280
     1
102
RTVSPost2010Prop28
280
     0
102
RTVSPost2010PropOp28
 70
     1
102
RTVSPost2010Prop29
280
     1
102
RTVSPost2010PropOp29
 70
     1
102
RTVSPost2010Prop30
280
     1
102
RTVSPost2010PropOp30
 70
     1
102
RTVSPost2010Prop31
280
     0
102
RTVSPost2010PropOp31
 70
     1
102
RTVSPost2010Prop32
280
     0
102
RTVSPost2010PropOp32
 70
     1
102
RTVSPost2010Prop33
280
     0
102
RTVSPost2010PropOp33
 70
     1
102
RTVSPost2010Prop34
280
     0
102
RTVSPost2010PropOp34
 70
     1
102
RTVSPost2010Prop35
280
     0
102
RTVSPost2010PropOp35
 70
     1
102
RTVSPost2010Prop36
280
     0
102
RTVSPost2010PropOp36
 70
     1
102
RTVSPost2010Prop37
 90
       50
102
RTVSPost2010PropOp37
 70
     1
102
RTVSPost2010Prop38
140
0.0
102
RTVSPost2010PropOp38
 70
     1
102
RTVSPost2010Prop39
140
1.0
102
RTVSPost2010PropOp39
 70
     1
102
RTVSPost2010Prop40
 90
        0
102
RTVSPost2010PropOp40
 70
     1
102
RTVSPost2010Prop41ColorIndex
 90
       18
102
RTVSPost2010Prop41ColorRGB
 90
        0
102
RTVSPost2010PropOp41
 70
     1
102
RTVSPost2010Prop42
 90
       50
102
RTVSPost2010PropOp42
 70
     1
102
RTVSPost2010Prop43
 90
        3
102
RTVSPost2010PropOp43
 70
     1
102
RTVSPost2010Prop44ColorIndex
 90
        5
102
RTVSPost2010Prop44ColorRGB
 90
      255
102
RTVSPost2010PropOp44
 70
     1
102
RTVSPost2010Prop45
280
     0
102
RTVSPost2010PropOp45
 70
     1
102
RTVSPost2010Prop46
 90
       50
102
RTVSPost2010PropOp46
 70
     1
102
RTVSPost2010Prop47
 90
       50
102
RTVSPost2010PropOp47
 70
     1
102
RTVSPost2010Prop48
 90
       50
102
RTVSPost2010PropOp48
 70
     1
102
RTVSPost2010Prop49
280
     0
102
RTVSPost2010PropOp49
 70
     1
102
RTVSPost2010Prop50
 90
       50
102
RTVSPost2010PropOp50
 70
     1
102
RTVSPost2010Prop51ColorIndex
 90
      256
102
RTVSPost2010Prop51ColorRGB
 90
-16777216
102
RTVSPost2010PropOp51
 70
     0
102
RTVSPost2010Prop52
140
1.0
102
RTVSPost2010PropOp52
 70
     0
102
RTVSPost2010Prop53
 90
        2
102
RTVSPost2010PropOp53
 70
     1
102
RTVSPost2010Prop54
  1
strokes_ogs.tif
102
RTVSPost2010PropOp54
 70
     1
102
RTVSPost2010Prop55
280
     0
102
RTVSPost2010PropOp55
 70
     1
102
RTVSPost2010Prop56
140
1.0
102
RTVSPost2010PropOp56
 70
     1
102
RTVSPost2010Prop57
140
1.0
102
RTVSPost2010PropOp57
 70
     1
102
RTVSPropertyOp0
 70
     1
102
RTVSPropertyOp1
 70
     1
102
RTVSPropertyOp2
 70
     1
102
RTVSPropertyOp3
 70
     1
102
RTVSPropertyOp4
 70
     1
102
RTVSPropertyOp5
 70
     1
102
RTVSPropertyOp6
 70
     1
102
RTVSPropertyOp7
 70
     1
102
RTVSPropertyOp8
 70
     1
102
RTVSPropertyOp9
 70
     1
102
RTVSPropertyOp10
 70
     1
102
RTVSPropertyOp11
 70
     1
102
RTVSPropertyOp12
 70
     1
102
RTVSPropertyOp13
 70
     1
102
RTVSPropertyOp14
 70
     1
102
RTVSPropertyOp15
 70
     1
102
RTVSPropertyOp16
 70
     1
102
RTVSPropertyOp17
 70
     1
102
RTVSPropertyOp18
 70
     1
102
RTVSPropertyOp19
 70
     1
102
RTVSPropertyOp20
 70
     1
102
RTVSPropertyOp21
 70
     1
102
RTVSPropertyOp22
 70
     1
102
RTVSPropertyOp23
 70
     1
102
RTVSPropertyOp24
 70
     1
102
RTVSPropertyOp25
 70
     1
102
RTVSPropertyOp26
 70
     1
102
RTVSPropertyOp27
 70
     1
102
RTVSPropertyOp28
 70
     1
102
RTVSPropertyOp29
 70
     1
102
RTVSPropertyOp30
 70
     1
102
RTVSPropertyOp31
 70
     1
102
RTVSPropertyOp32
 70
     1
102
RTVSPropertyOp33
 70
     1
102
RTVSPropertyOp34
 70
     1
102
RTVSPropertyOp35
 70
     1
102
RTVSPropertyOp36
 70
     1
102
RTVSPropertyOp37
 70
     1
102
RTVSPropertyOp38
 70
     1
102
RTVSPropertyOp39
 70
     1
102
RTVSPropertyOp40
 70
     1
102
RTVSPropertyOp41
 70
     1
102
RTVSPropertyOp42
 70
     1
102
RTVSPropertyOp43
 70
     1
102
RTVSPropertyOp44
 70
     1
102
RTVSPropertyOp45
 70
     1
102
RTVSPropertyOp46
 70
     1
102
RTVSPropertyOp47
 70
     1
102
RTVSPropertyOp48
 70
     1
102
RTVSPropertyOp49
 70
     1
102
RTVSPropertyOp50
 70
     1
102
RTVSPropertyOp51
 70
     0
102
RTVSPropertyOp52
 70
     0
102
RTVSPropertyOp53
 70
     1
102
RTVSPropertyOp54
 70
     1
102
RTVSPropertyOp55
 70
     1
102
RTVSPropertyOp56
 70
     1
102
RTVSPropertyOp57
 70
     1
102
RTVSPropertyOp58
 70
     1
102
RTVSPropertyOp59
 70
     1
102
RTVSPropertyOp60
 70
     1
102
RTVSPropertyOp61
 70
     1
102
RTVSPropertyOp62
 70
     1
  0
XRECORD
  5
83E
102
{ACAD_REACTORS
330
83D
102
}
330
83D
100
AcDbXrecord
280
     1
102
RTVSPost2010Prop28
280
     0
102
RTVSPost2010PropOp28
 70
     1
102
RTVSPost2010Prop29
280
     1
102
RTVSPost2010PropOp29
 70
     1
102
RTVSPost2010Prop30
280
     1
102
RTVSPost2010PropOp30
 70
     1
102
RTVSPost2010Prop31
280
     0
102
RTVSPost2010PropOp31
 70
     1
102
RTVSPost2010Prop32
280
     0
102
RTVSPost2010PropOp32
 70
     1
102
RTVSPost2010Prop33
280
     0
102
RTVSPost2010PropOp33
 70
     1
102
RTVSPost2010Prop34
280
     0
102
RTVSPost2010PropOp34
 70
     1
102
RTVSPost2010Prop35
280
     0
102
RTVSPost2010PropOp35
 70
     1
102
RTVSPost2010Prop36
280
     0
102
RTVSPost2010PropOp36
 70
     1
102
RTVSPost2010Prop37
 90
       50
102
RTVSPost2010PropOp37
 70
     1
102
RTVSPost2010Prop38
140
0.0
102
RTVSPost2010PropOp38
 70
     1
102
RTVSPost2010Prop39
140
1.0
102
RTVSPost2010PropOp39
 70
     1
102
RTVSPost2010Prop40
 90
        0
102
RTVSPost2010PropOp40
 70
     1
102
RTVSPost2010Prop41ColorIndex
 90
       18
102
RTVSPost2010Prop41ColorRGB
 90
        0
102
RTVSPost2010PropOp41
 70
     1
102
RTVSPost2010Prop42
 90
       50
102
RTVSPost2010PropOp42
 70
     1
102
RTVSPost2010Prop43
 90
        3
102
RTVSPost2010PropOp43
 70
     1
102
RTVSPost2010Prop44ColorIndex
 90
        5
102
RTVSPost2010Prop44ColorRGB
 90
      255
102
RTVSPost2010PropOp44
 70
     1
102
RTVSPost2010Prop45
280
     0
102
RTVSPost2010PropOp45
 70
     1
102
RTVSPost2010Prop46
 90
       50
102
RTVSPost2010PropOp46
 70
     1
102
RTVSPost2010Prop47
 90
       50
102
RTVSPost2010PropOp47
 70
     1
102
RTVSPost2010Prop48
 90
       50
102
RTVSPost2010PropOp48
 70
     1
102
RTVSPost2010Prop49
280
     0
102
RTVSPost2010PropOp49
 70
     1
102
RTVSPost2010Prop50
 90
       50
102
RTVSPost2010PropOp50
 70
     1
102
RTVSPost2010Prop51ColorIndex
 90
      256
102
RTVSPost2010Prop51ColorRGB
 90
-16777216
102
RTVSPost2010PropOp51
 70
     0
102
RTVSPost2010Prop52
140
1.0
102
RTVSPost2010PropOp52
 70
     0
102
RTVSPost2010Prop53
 90
        2
102
RTVSPost2010PropOp53
 70
     1
102
RTVSPost2010Prop54
  1
strokes_ogs.tif
102
RTVSPost2010PropOp54
 70
     1
102
RTVSPost2010Prop55
280
     0
102
RTVSPost2010PropOp55
 70
     1
102
RTVSPost2010Prop56
140
1.0
102
RTVSPost2010PropOp56
 70
     1
102
RTVSPost2010Prop57
140
1.0
102
RTVSPost2010PropOp57
 70
     1
102
RTVSPropertyOp0
 70
     1
102
RTVSPropertyOp1
 70
     1
102
RTVSPropertyOp2
 70
     1
102
RTVSPropertyOp3
 70
     1
102
RTVSPropertyOp4
 70
     1
102
RTVSPropertyOp5
 70
     1
102
RTVSPropertyOp6
 70
     1
102
RTVSPropertyOp7
 70
     1
102
RTVSPropertyOp8
 70
     1
102
RTVSPropertyOp9
 70
     1
102
RTVSPropertyOp10
 70
     1
102
RTVSPropertyOp11
 70
     1
102
RTVSPropertyOp12
 70
     1
102
RTVSPropertyOp13
 70
     1
102
RTVSPropertyOp14
 70
     1
102
RTVSPropertyOp15
 70
     1
102
RTVSPropertyOp16
 70
     1
102
RTVSPropertyOp17
 70
     1
102
RTVSPropertyOp18
 70
     1
102
RTVSPropertyOp19
 70
     1
102
RTVSPropertyOp20
 70
     1
102
RTVSPropertyOp21
 70
     1
102
RTVSPropertyOp22
 70
     1
102
RTVSPropertyOp23
 70
     1
102
RTVSPropertyOp24
 70
     1
102
RTVSPropertyOp25
 70
     1
102
RTVSPropertyOp26
 70
     1
102
RTVSPropertyOp27
 70
     1
102
RTVSPropertyOp28
 70
     1
102
RTVSPropertyOp29
 70
     1
102
RTVSPropertyOp30
 70
     1
102
RTVSPropertyOp31
 70
     1
102
RTVSPropertyOp32
 70
     1
102
RTVSPropertyOp33
 70
     1
102
RTVSPropertyOp34
 70
     1
102
RTVSPropertyOp35
 70
     1
102
RTVSPropertyOp36
 70
     1
102
RTVSPropertyOp37
 70
     1
102
RTVSPropertyOp38
 70
     1
102
RTVSPropertyOp39
 70
     1
102
RTVSPropertyOp40
 70
     1
102
RTVSPropertyOp41
 70
     1
102
RTVSPropertyOp42
 70
     1
102
RTVSPropertyOp43
 70
     1
102
RTVSPropertyOp44
 70
     1
102
RTVSPropertyOp45
 70
     1
102
RTVSPropertyOp46
 70
     1
102
RTVSPropertyOp47
 70
     1
102
RTVSPropertyOp48
 70
     1
102
RTVSPropertyOp49
 70
     1
102
RTVSPropertyOp50
 70
     1
102
RTVSPropertyOp51
 70
     0
102
RTVSPropertyOp52
 70
     0
102
RTVSPropertyOp53
 70
     1
102
RTVSPropertyOp54
 70
     1
102
RTVSPropertyOp55
 70
     1
102
RTVSPropertyOp56
 70
     1
102
RTVSPropertyOp57
 70
     1
102
RTVSPropertyOp58
 70
     1
102
RTVSPropertyOp59
 70
     1
102
RTVSPropertyOp60
 70
     1
102
RTVSPropertyOp61
 70
     1
102
RTVSPropertyOp62
 70
     1
  0
XRECORD
  5
840
102
{ACAD_REACTORS
330
83F
102
}
330
83F
100
AcDbXrecord
280
     1
102
RTVSPost2010Prop28
280
     0
102
RTVSPost2010PropOp28
 70
     1
102
RTVSPost2010Prop29
280
     1
102
RTVSPost2010PropOp29
 70
     1
102
RTVSPost2010Prop30
280
     1
102
RTVSPost2010PropOp30
 70
     1
102
RTVSPost2010Prop31
280
     0
102
RTVSPost2010PropOp31
 70
     1
102
RTVSPost2010Prop32
280
     0
102
RTVSPost2010PropOp32
 70
     1
102
RTVSPost2010Prop33
280
     0
102
RTVSPost2010PropOp33
 70
     1
102
RTVSPost2010Prop34
280
     0
102
RTVSPost2010PropOp34
 70
     1
102
RTVSPost2010Prop35
280
     0
102
RTVSPost2010PropOp35
 70
     1
102
RTVSPost2010Prop36
280
     0
102
RTVSPost2010PropOp36
 70
     1
102
RTVSPost2010Prop37
 90
       50
102
RTVSPost2010PropOp37
 70
     1
102
RTVSPost2010Prop38
140
0.0
102
RTVSPost2010PropOp38
 70
     1
102
RTVSPost2010Prop39
140
1.0
102
RTVSPost2010PropOp39
 70
     1
102
RTVSPost2010Prop40
 90
        0
102
RTVSPost2010PropOp40
 70
     1
102
RTVSPost2010Prop41ColorIndex
 90
       18
102
RTVSPost2010Prop41ColorRGB
 90
        0
102
RTVSPost2010PropOp41
 70
     1
102
RTVSPost2010Prop42
 90
       50
102
RTVSPost2010PropOp42
 70
     1
102
RTVSPost2010Prop43
 90
        3
102
RTVSPost2010PropOp43
 70
     1
102
RTVSPost2010Prop44ColorIndex
 90
        5
102
RTVSPost2010Prop44ColorRGB
 90
      255
102
RTVSPost2010PropOp44
 70
     1
102
RTVSPost2010Prop45
280
     0
102
RTVSPost2010PropOp45
 70
     1
102
RTVSPost2010Prop46
 90
       50
102
RTVSPost2010PropOp46
 70
     1
102
RTVSPost2010Prop47
 90
       50
102
RTVSPost2010PropOp47
 70
     1
102
RTVSPost2010Prop48
 90
       50
102
RTVSPost2010PropOp48
 70
     1
102
RTVSPost2010Prop49
280
     0
102
RTVSPost2010PropOp49
 70
     1
102
RTVSPost2010Prop50
 90
       50
102
RTVSPost2010PropOp50
 70
     1
102
RTVSPost2010Prop51ColorIndex
 90
      256
102
RTVSPost2010Prop51ColorRGB
 90
-16777216
102
RTVSPost2010PropOp51
 70
     0
102
RTVSPost2010Prop52
140
1.0
102
RTVSPost2010PropOp52
 70
     0
102
RTVSPost2010Prop53
 90
        2
102
RTVSPost2010PropOp53
 70
     1
102
RTVSPost2010Prop54
  1
strokes_ogs.tif
102
RTVSPost2010PropOp54
 70
     1
102
RTVSPost2010Prop55
280
     0
102
RTVSPost2010PropOp55
 70
     1
102
RTVSPost2010Prop56
140
1.0
102
RTVSPost2010PropOp56
 70
     1
102
RTVSPost2010Prop57
140
1.0
102
RTVSPost2010PropOp57
 70
     1
102
RTVSPropertyOp0
 70
     1
102
RTVSPropertyOp1
 70
     1
102
RTVSPropertyOp2
 70
     1
102
RTVSPropertyOp3
 70
     1
102
RTVSPropertyOp4
 70
     1
102
RTVSPropertyOp5
 70
     1
102
RTVSPropertyOp6
 70
     1
102
RTVSPropertyOp7
 70
     1
102
RTVSPropertyOp8
 70
     1
102
RTVSPropertyOp9
 70
     1
102
RTVSPropertyOp10
 70
     1
102
RTVSPropertyOp11
 70
     1
102
RTVSPropertyOp12
 70
     1
102
RTVSPropertyOp13
 70
     1
102
RTVSPropertyOp14
 70
     1
102
RTVSPropertyOp15
 70
     1
102
RTVSPropertyOp16
 70
     1
102
RTVSPropertyOp17
 70
     1
102
RTVSPropertyOp18
 70
     1
102
RTVSPropertyOp19
 70
     1
102
RTVSPropertyOp20
 70
     1
102
RTVSPropertyOp21
 70
     1
102
RTVSPropertyOp22
 70
     1
102
RTVSPropertyOp23
 70
     1
102
RTVSPropertyOp24
 70
     1
102
RTVSPropertyOp25
 70
     1
102
RTVSPropertyOp26
 70
     1
102
RTVSPropertyOp27
 70
     1
102
RTVSPropertyOp28
 70
     1
102
RTVSPropertyOp29
 70
     1
102
RTVSPropertyOp30
 70
     1
102
RTVSPropertyOp31
 70
     1
102
RTVSPropertyOp32
 70
     1
102
RTVSPropertyOp33
 70
     1
102
RTVSPropertyOp34
 70
     1
102
RTVSPropertyOp35
 70
     1
102
RTVSPropertyOp36
 70
     1
102
RTVSPropertyOp37
 70
     1
102
RTVSPropertyOp38
 70
     1
102
RTVSPropertyOp39
 70
     1
102
RTVSPropertyOp40
 70
     1
102
RTVSPropertyOp41
 70
     1
102
RTVSPropertyOp42
 70
     1
102
RTVSPropertyOp43
 70
     1
102
RTVSPropertyOp44
 70
     1
102
RTVSPropertyOp45
 70
     1
102
RTVSPropertyOp46
 70
     1
102
RTVSPropertyOp47
 70
     1
102
RTVSPropertyOp48
 70
     1
102
RTVSPropertyOp49
 70
     1
102
RTVSPropertyOp50
 70
     1
102
RTVSPropertyOp51
 70
     0
102
RTVSPropertyOp52
 70
     0
102
RTVSPropertyOp53
 70
     1
102
RTVSPropertyOp54
 70
     1
102
RTVSPropertyOp55
 70
     1
102
RTVSPropertyOp56
 70
     1
102
RTVSPropertyOp57
 70
     1
102
RTVSPropertyOp58
 70
     1
102
RTVSPropertyOp59
 70
     1
102
RTVSPropertyOp60
 70
     1
102
RTVSPropertyOp61
 70
     1
102
RTVSPropertyOp62
 70
     1
  0
XRECORD
  5
842
102
{ACAD_REACTORS
330
841
102
}
330
841
100
AcDbXrecord
280
     1
102
RTVSPost2010Prop28
280
     0
102
RTVSPost2010PropOp28
 70
     1
102
RTVSPost2010Prop29
280
     1
102
RTVSPost2010PropOp29
 70
     1
102
RTVSPost2010Prop30
280
     1
102
RTVSPost2010PropOp30
 70
     1
102
RTVSPost2010Prop31
280
     0
102
RTVSPost2010PropOp31
 70
     1
102
RTVSPost2010Prop32
280
     0
102
RTVSPost2010PropOp32
 70
     1
102
RTVSPost2010Prop33
280
     0
102
RTVSPost2010PropOp33
 70
     1
102
RTVSPost2010Prop34
280
     0
102
RTVSPost2010PropOp34
 70
     1
102
RTVSPost2010Prop35
280
     0
102
RTVSPost2010PropOp35
 70
     1
102
RTVSPost2010Prop36
280
     0
102
RTVSPost2010PropOp36
 70
     1
102
RTVSPost2010Prop37
 90
       50
102
RTVSPost2010PropOp37
 70
     1
102
RTVSPost2010Prop38
140
0.0
102
RTVSPost2010PropOp38
 70
     1
102
RTVSPost2010Prop39
140
1.0
102
RTVSPost2010PropOp39
 70
     1
102
RTVSPost2010Prop40
 90
        0
102
RTVSPost2010PropOp40
 70
     1
102
RTVSPost2010Prop41ColorIndex
 90
       18
102
RTVSPost2010Prop41ColorRGB
 90
        0
102
RTVSPost2010PropOp41
 70
     1
102
RTVSPost2010Prop42
 90
       50
102
RTVSPost2010PropOp42
 70
     1
102
RTVSPost2010Prop43
 90
        3
102
RTVSPost2010PropOp43
 70
     1
102
RTVSPost2010Prop44ColorIndex
 90
        5
102
RTVSPost2010Prop44ColorRGB
 90
      255
102
RTVSPost2010PropOp44
 70
     1
102
RTVSPost2010Prop45
280
     0
102
RTVSPost2010PropOp45
 70
     1
102
RTVSPost2010Prop46
 90
       50
102
RTVSPost2010PropOp46
 70
     1
102
RTVSPost2010Prop47
 90
       50
102
RTVSPost2010PropOp47
 70
     1
102
RTVSPost2010Prop48
 90
       50
102
RTVSPost2010PropOp48
 70
     1
102
RTVSPost2010Prop49
280
     0
102
RTVSPost2010PropOp49
 70
     1
102
RTVSPost2010Prop50
 90
       50
102
RTVSPost2010PropOp50
 70
     1
102
RTVSPost2010Prop51ColorIndex
 90
      256
102
RTVSPost2010Prop51ColorRGB
 90
-16777216
102
RTVSPost2010PropOp51
 70
     0
102
RTVSPost2010Prop52
140
1.0
102
RTVSPost2010PropOp52
 70
     0
102
RTVSPost2010Prop53
 90
        2
102
RTVSPost2010PropOp53
 70
     1
102
RTVSPost2010Prop54
  1
strokes_ogs.tif
102
RTVSPost2010PropOp54
 70
     1
102
RTVSPost2010Prop55
280
     0
102
RTVSPost2010PropOp55
 70
     1
102
RTVSPost2010Prop56
140
1.0
102
RTVSPost2010PropOp56
 70
     1
102
RTVSPost2010Prop57
140
1.0
102
RTVSPost2010PropOp57
 70
     1
102
RTVSPropertyOp0
 70
     1
102
RTVSPropertyOp1
 70
     1
102
RTVSPropertyOp2
 70
     1
102
RTVSPropertyOp3
 70
     1
102
RTVSPropertyOp4
 70
     1
102
RTVSPropertyOp5
 70
     1
102
RTVSPropertyOp6
 70
     1
102
RTVSPropertyOp7
 70
     1
102
RTVSPropertyOp8
 70
     1
102
RTVSPropertyOp9
 70
     1
102
RTVSPropertyOp10
 70
     1
102
RTVSPropertyOp11
 70
     1
102
RTVSPropertyOp12
 70
     1
102
RTVSPropertyOp13
 70
     1
102
RTVSPropertyOp14
 70
     1
102
RTVSPropertyOp15
 70
     1
102
RTVSPropertyOp16
 70
     1
102
RTVSPropertyOp17
 70
     1
102
RTVSPropertyOp18
 70
     1
102
RTVSPropertyOp19
 70
     1
102
RTVSPropertyOp20
 70
     1
102
RTVSPropertyOp21
 70
     1
102
RTVSPropertyOp22
 70
     1
102
RTVSPropertyOp23
 70
     1
102
RTVSPropertyOp24
 70
     1
102
RTVSPropertyOp25
 70
     1
102
RTVSPropertyOp26
 70
     1
102
RTVSPropertyOp27
 70
     1
102
RTVSPropertyOp28
 70
     1
102
RTVSPropertyOp29
 70
     1
102
RTVSPropertyOp30
 70
     1
102
RTVSPropertyOp31
 70
     1
102
RTVSPropertyOp32
 70
     1
102
RTVSPropertyOp33
 70
     1
102
RTVSPropertyOp34
 70
     1
102
RTVSPropertyOp35
 70
     1
102
RTVSPropertyOp36
 70
     1
102
RTVSPropertyOp37
 70
     1
102
RTVSPropertyOp38
 70
     1
102
RTVSPropertyOp39
 70
     1
102
RTVSPropertyOp40
 70
     1
102
RTVSPropertyOp41
 70
     1
102
RTVSPropertyOp42
 70
     1
102
RTVSPropertyOp43
 70
     1
102
RTVSPropertyOp44
 70
     1
102
RTVSPropertyOp45
 70
     1
102
RTVSPropertyOp46
 70
     1
102
RTVSPropertyOp47
 70
     1
102
RTVSPropertyOp48
 70
     1
102
RTVSPropertyOp49
 70
     1
102
RTVSPropertyOp50
 70
     1
102
RTVSPropertyOp51
 70
     0
102
RTVSPropertyOp52
 70
     0
102
RTVSPropertyOp53
 70
     1
102
RTVSPropertyOp54
 70
     1
102
RTVSPropertyOp55
 70
     1
102
RTVSPropertyOp56
 70
     1
102
RTVSPropertyOp57
 70
     1
102
RTVSPropertyOp58
 70
     1
102
RTVSPropertyOp59
 70
     1
102
RTVSPropertyOp60
 70
     1
102
RTVSPropertyOp61
 70
     1
102
RTVSPropertyOp62
 70
     1
  0
XRECORD
  5
84A
102
{ACAD_REACTORS
330
849
102
}
330
849
100
AcDbXrecord
280
     1
102
RTVSPost2010Prop28
280
     0
102
RTVSPost2010PropOp28
 70
     1
102
RTVSPost2010Prop29
280
     1
102
RTVSPost2010PropOp29
 70
     1
102
RTVSPost2010Prop30
280
     1
102
RTVSPost2010PropOp30
 70
     1
102
RTVSPost2010Prop31
280
     0
102
RTVSPost2010PropOp31
 70
     1
102
RTVSPost2010Prop32
280
     0
102
RTVSPost2010PropOp32
 70
     1
102
RTVSPost2010Prop33
280
     0
102
RTVSPost2010PropOp33
 70
     1
102
RTVSPost2010Prop34
280
     0
102
RTVSPost2010PropOp34
 70
     1
102
RTVSPost2010Prop35
280
     0
102
RTVSPost2010PropOp35
 70
     1
102
RTVSPost2010Prop36
280
     0
102
RTVSPost2010PropOp36
 70
     1
102
RTVSPost2010Prop37
 90
       50
102
RTVSPost2010PropOp37
 70
     1
102
RTVSPost2010Prop38
140
0.0
102
RTVSPost2010PropOp38
 70
     1
102
RTVSPost2010Prop39
140
1.0
102
RTVSPost2010PropOp39
 70
     1
102
RTVSPost2010Prop40
 90
        0
102
RTVSPost2010PropOp40
 70
     1
102
RTVSPost2010Prop41ColorIndex
 90
       18
102
RTVSPost2010Prop41ColorRGB
 90
        0
102
RTVSPost2010PropOp41
 70
     1
102
RTVSPost2010Prop42
 90
       50
102
RTVSPost2010PropOp42
 70
     1
102
RTVSPost2010Prop43
 90
        3
102
RTVSPost2010PropOp43
 70
     1
102
RTVSPost2010Prop44ColorIndex
 90
        5
102
RTVSPost2010Prop44ColorRGB
 90
      255
102
RTVSPost2010PropOp44
 70
     1
102
RTVSPost2010Prop45
280
     0
102
RTVSPost2010PropOp45
 70
     1
102
RTVSPost2010Prop46
 90
       50
102
RTVSPost2010PropOp46
 70
     1
102
RTVSPost2010Prop47
 90
       50
102
RTVSPost2010PropOp47
 70
     1
102
RTVSPost2010Prop48
 90
       50
102
RTVSPost2010PropOp48
 70
     1
102
RTVSPost2010Prop49
280
     0
102
RTVSPost2010PropOp49
 70
     1
102
RTVSPost2010Prop50
 90
       50
102
RTVSPost2010PropOp50
 70
     1
102
RTVSPost2010Prop51ColorIndex
 90
      256
102
RTVSPost2010Prop51ColorRGB
 90
-16777216
102
RTVSPost2010PropOp51
 70
     0
102
RTVSPost2010Prop52
140
1.0
102
RTVSPost2010PropOp52
 70
     0
102
RTVSPost2010Prop53
 90
        2
102
RTVSPost2010PropOp53
 70
     1
102
RTVSPost2010Prop54
  1
strokes_ogs.tif
102
RTVSPost2010PropOp54
 70
     1
102
RTVSPost2010Prop55
280
     0
102
RTVSPost2010PropOp55
 70
     1
102
RTVSPost2010Prop56
140
1.0
102
RTVSPost2010PropOp56
 70
     1
102
RTVSPost2010Prop57
140
1.0
102
RTVSPost2010PropOp57
 70
     1
102
RTVSPropertyOp0
 70
     1
102
RTVSPropertyOp1
 70
     1
102
RTVSPropertyOp2
 70
     1
102
RTVSPropertyOp3
 70
     1
102
RTVSPropertyOp4
 70
     1
102
RTVSPropertyOp5
 70
     1
102
RTVSPropertyOp6
 70
     1
102
RTVSPropertyOp7
 70
     1
102
RTVSPropertyOp8
 70
     1
102
RTVSPropertyOp9
 70
     1
102
RTVSPropertyOp10
 70
     1
102
RTVSPropertyOp11
 70
     1
102
RTVSPropertyOp12
 70
     1
102
RTVSPropertyOp13
 70
     1
102
RTVSPropertyOp14
 70
     1
102
RTVSPropertyOp15
 70
     1
102
RTVSPropertyOp16
 70
     1
102
RTVSPropertyOp17
 70
     1
102
RTVSPropertyOp18
 70
     1
102
RTVSPropertyOp19
 70
     1
102
RTVSPropertyOp20
 70
     1
102
RTVSPropertyOp21
 70
     1
102
RTVSPropertyOp22
 70
     1
102
RTVSPropertyOp23
 70
     1
102
RTVSPropertyOp24
 70
     1
102
RTVSPropertyOp25
 70
     1
102
RTVSPropertyOp26
 70
     1
102
RTVSPropertyOp27
 70
     1
102
RTVSPropertyOp28
 70
     1
102
RTVSPropertyOp29
 70
     1
102
RTVSPropertyOp30
 70
     1
102
RTVSPropertyOp31
 70
     1
102
RTVSPropertyOp32
 70
     1
102
RTVSPropertyOp33
 70
     1
102
RTVSPropertyOp34
 70
     1
102
RTVSPropertyOp35
 70
     1
102
RTVSPropertyOp36
 70
     1
102
RTVSPropertyOp37
 70
     1
102
RTVSPropertyOp38
 70
     1
102
RTVSPropertyOp39
 70
     1
102
RTVSPropertyOp40
 70
     1
102
RTVSPropertyOp41
 70
     1
102
RTVSPropertyOp42
 70
     1
102
RTVSPropertyOp43
 70
     1
102
RTVSPropertyOp44
 70
     1
102
RTVSPropertyOp45
 70
     1
102
RTVSPropertyOp46
 70
     1
102
RTVSPropertyOp47
 70
     1
102
RTVSPropertyOp48
 70
     1
102
RTVSPropertyOp49
 70
     1
102
RTVSPropertyOp50
 70
     1
102
RTVSPropertyOp51
 70
     0
102
RTVSPropertyOp52
 70
     0
102
RTVSPropertyOp53
 70
     1
102
RTVSPropertyOp54
 70
     1
102
RTVSPropertyOp55
 70
     1
102
RTVSPropertyOp56
 70
     1
102
RTVSPropertyOp57
 70
     1
102
RTVSPropertyOp58
 70
     1
102
RTVSPropertyOp59
 70
     1
102
RTVSPropertyOp60
 70
     1
102
RTVSPropertyOp61
 70
     1
102
RTVSPropertyOp62
 70
     1
  0
XRECORD
  5
85C
102
{ACAD_REACTORS
330
85B
102
}
330
85B
100
AcDbXrecord
280
     1
102
RTVSPost2010Prop28
280
     0
102
RTVSPost2010PropOp28
 70
     1
102
RTVSPost2010Prop29
280
     1
102
RTVSPost2010PropOp29
 70
     1
102
RTVSPost2010Prop30
280
     1
102
RTVSPost2010PropOp30
 70
     1
102
RTVSPost2010Prop31
280
     0
102
RTVSPost2010PropOp31
 70
     1
102
RTVSPost2010Prop32
280
     0
102
RTVSPost2010PropOp32
 70
     1
102
RTVSPost2010Prop33
280
     0
102
RTVSPost2010PropOp33
 70
     1
102
RTVSPost2010Prop34
280
     0
102
RTVSPost2010PropOp34
 70
     1
102
RTVSPost2010Prop35
280
     0
102
RTVSPost2010PropOp35
 70
     1
102
RTVSPost2010Prop36
280
     0
102
RTVSPost2010PropOp36
 70
     1
102
RTVSPost2010Prop37
 90
       50
102
RTVSPost2010PropOp37
 70
     1
102
RTVSPost2010Prop38
140
0.0
102
RTVSPost2010PropOp38
 70
     1
102
RTVSPost2010Prop39
140
1.0
102
RTVSPost2010PropOp39
 70
     1
102
RTVSPost2010Prop40
 90
        0
102
RTVSPost2010PropOp40
 70
     1
102
RTVSPost2010Prop41ColorIndex
 90
       18
102
RTVSPost2010Prop41ColorRGB
 90
        0
102
RTVSPost2010PropOp41
 70
     1
102
RTVSPost2010Prop42
 90
       50
102
RTVSPost2010PropOp42
 70
     1
102
RTVSPost2010Prop43
 90
        3
102
RTVSPost2010PropOp43
 70
     1
102
RTVSPost2010Prop44ColorIndex
 90
        5
102
RTVSPost2010Prop44ColorRGB
 90
      255
102
RTVSPost2010PropOp44
 70
     1
102
RTVSPost2010Prop45
280
     0
102
RTVSPost2010PropOp45
 70
     1
102
RTVSPost2010Prop46
 90
       50
102
RTVSPost2010PropOp46
 70
     1
102
RTVSPost2010Prop47
 90
       50
102
RTVSPost2010PropOp47
 70
     1
102
RTVSPost2010Prop48
 90
       50
102
RTVSPost2010PropOp48
 70
     1
102
RTVSPost2010Prop49
280
     0
102
RTVSPost2010PropOp49
 70
     1
102
RTVSPost2010Prop50
 90
       50
102
RTVSPost2010PropOp50
 70
     1
102
RTVSPost2010Prop51ColorIndex
 90
      256
102
RTVSPost2010Prop51ColorRGB
 90
-16777216
102
RTVSPost2010PropOp51
 70
     0
102
RTVSPost2010Prop52
140
1.0
102
RTVSPost2010PropOp52
 70
     0
102
RTVSPost2010Prop53
 90
        2
102
RTVSPost2010PropOp53
 70
     1
102
RTVSPost2010Prop54
  1
strokes_ogs.tif
102
RTVSPost2010PropOp54
 70
     1
102
RTVSPost2010Prop55
280
     0
102
RTVSPost2010PropOp55
 70
     1
102
RTVSPost2010Prop56
140
1.0
102
RTVSPost2010PropOp56
 70
     1
102
RTVSPost2010Prop57
140
1.0
102
RTVSPost2010PropOp57
 70
     1
102
RTVSPropertyOp0
 70
     0
102
RTVSPropertyOp1
 70
     0
102
RTVSPropertyOp2
 70
     0
102
RTVSPropertyOp3
 70
     0
102
RTVSPropertyOp4
 70
     0
102
RTVSPropertyOp5
 70
     0
102
RTVSPropertyOp6
 70
     0
102
RTVSPropertyOp7
 70
     0
102
RTVSPropertyOp8
 70
     0
102
RTVSPropertyOp9
 70
     0
102
RTVSPropertyOp10
 70
     0
102
RTVSPropertyOp11
 70
     0
102
RTVSPropertyOp12
 70
     0
102
RTVSPropertyOp13
 70
     0
102
RTVSPropertyOp14
 70
     2
102
RTVSPropertyOp15
 70
     0
102
RTVSPropertyOp16
 70
     0
102
RTVSPropertyOp17
 70
     0
102
RTVSPropertyOp18
 70
     0
102
RTVSPropertyOp19
 70
     0
102
RTVSPropertyOp20
 70
     0
102
RTVSPropertyOp21
 70
     0
102
RTVSPropertyOp22
 70
     0
102
RTVSPropertyOp23
 70
     0
102
RTVSPropertyOp24
 70
     0
102
RTVSPropertyOp25
 70
     0
102
RTVSPropertyOp26
 70
     0
102
RTVSPropertyOp27
 70
     0
102
RTVSPropertyOp28
 70
     1
102
RTVSPropertyOp29
 70
     1
102
RTVSPropertyOp30
 70
     1
102
RTVSPropertyOp31
 70
     1
102
RTVSPropertyOp32
 70
     1
102
RTVSPropertyOp33
 70
     1
102
RTVSPropertyOp34
 70
     1
102
RTVSPropertyOp35
 70
     1
102
RTVSPropertyOp36
 70
     1
102
RTVSPropertyOp37
 70
     1
102
RTVSPropertyOp38
 70
     1
102
RTVSPropertyOp39
 70
     1
102
RTVSPropertyOp40
 70
     1
102
RTVSPropertyOp41
 70
     1
102
RTVSPropertyOp42
 70
     1
102
RTVSPropertyOp43
 70
     1
102
RTVSPropertyOp44
 70
     1
102
RTVSPropertyOp45
 70
     1
102
RTVSPropertyOp46
 70
     1
102
RTVSPropertyOp47
 70
     1
102
RTVSPropertyOp48
 70
     1
102
RTVSPropertyOp49
 70
     1
102
RTVSPropertyOp50
 70
     1
102
RTVSPropertyOp51
 70
     0
102
RTVSPropertyOp52
 70
     0
102
RTVSPropertyOp53
 70
     1
102
RTVSPropertyOp54
 70
     1
102
RTVSPropertyOp55
 70
     1
102
RTVSPropertyOp56
 70
     1
102
RTVSPropertyOp57
 70
     1
102
RTVSPropertyOp58
 70
     1
102
RTVSPropertyOp59
 70
     1
102
RTVSPropertyOp60
 70
     1
102
RTVSPropertyOp61
 70
     1
102
RTVSPropertyOp62
 70
     1
  0
XRECORD
  5
856
102
{ACAD_REACTORS
330
855
102
}
330
855
100
AcDbXrecord
280
     1
102
RTVSPost2010Prop28
280
     0
102
RTVSPost2010PropOp28
 70
     1
102
RTVSPost2010Prop29
280
     1
102
RTVSPost2010PropOp29
 70
     1
102
RTVSPost2010Prop30
280
     1
102
RTVSPost2010PropOp30
 70
     1
102
RTVSPost2010Prop31
280
     0
102
RTVSPost2010PropOp31
 70
     1
102
RTVSPost2010Prop32
280
     0
102
RTVSPost2010PropOp32
 70
     1
102
RTVSPost2010Prop33
280
     0
102
RTVSPost2010PropOp33
 70
     1
102
RTVSPost2010Prop34
280
     0
102
RTVSPost2010PropOp34
 70
     1
102
RTVSPost2010Prop35
280
     0
102
RTVSPost2010PropOp35
 70
     1
102
RTVSPost2010Prop36
280
     0
102
RTVSPost2010PropOp36
 70
     1
102
RTVSPost2010Prop37
 90
       50
102
RTVSPost2010PropOp37
 70
     1
102
RTVSPost2010Prop38
140
0.0
102
RTVSPost2010PropOp38
 70
     1
102
RTVSPost2010Prop39
140
1.0
102
RTVSPost2010PropOp39
 70
     1
102
RTVSPost2010Prop40
 90
        0
102
RTVSPost2010PropOp40
 70
     1
102
RTVSPost2010Prop41ColorIndex
 90
       18
102
RTVSPost2010Prop41ColorRGB
 90
        0
102
RTVSPost2010PropOp41
 70
     1
102
RTVSPost2010Prop42
 90
       50
102
RTVSPost2010PropOp42
 70
     1
102
RTVSPost2010Prop43
 90
        3
102
RTVSPost2010PropOp43
 70
     1
102
RTVSPost2010Prop44ColorIndex
 90
        5
102
RTVSPost2010Prop44ColorRGB
 90
      255
102
RTVSPost2010PropOp44
 70
     1
102
RTVSPost2010Prop45
280
     0
102
RTVSPost2010PropOp45
 70
     1
102
RTVSPost2010Prop46
 90
       50
102
RTVSPost2010PropOp46
 70
     1
102
RTVSPost2010Prop47
 90
       50
102
RTVSPost2010PropOp47
 70
     1
102
RTVSPost2010Prop48
 90
       50
102
RTVSPost2010PropOp48
 70
     1
102
RTVSPost2010Prop49
280
     0
102
RTVSPost2010PropOp49
 70
     1
102
RTVSPost2010Prop50
 90
       50
102
RTVSPost2010PropOp50
 70
     1
102
RTVSPost2010Prop51ColorIndex
 90
      256
102
RTVSPost2010Prop51ColorRGB
 90
-16777216
102
RTVSPost2010PropOp51
 70
     0
102
RTVSPost2010Prop52
140
1.0
102
RTVSPost2010PropOp52
 70
     0
102
RTVSPost2010Prop53
 90
        2
102
RTVSPost2010PropOp53
 70
     1
102
RTVSPost2010Prop54
  1
strokes_ogs.tif
102
RTVSPost2010PropOp54
 70
     1
102
RTVSPost2010Prop55
280
     0
102
RTVSPost2010PropOp55
 70
     1
102
RTVSPost2010Prop56
140
1.0
102
RTVSPost2010PropOp56
 70
     1
102
RTVSPost2010Prop57
140
1.0
102
RTVSPost2010PropOp57
 70
     1
102
RTVSPropertyOp0
 70
     1
102
RTVSPropertyOp1
 70
     1
102
RTVSPropertyOp2
 70
     1
102
RTVSPropertyOp3
 70
     1
102
RTVSPropertyOp4
 70
     1
102
RTVSPropertyOp5
 70
     1
102
RTVSPropertyOp6
 70
     1
102
RTVSPropertyOp7
 70
     1
102
RTVSPropertyOp8
 70
     1
102
RTVSPropertyOp9
 70
     1
102
RTVSPropertyOp10
 70
     1
102
RTVSPropertyOp11
 70
     1
102
RTVSPropertyOp12
 70
     1
102
RTVSPropertyOp13
 70
     1
102
RTVSPropertyOp14
 70
     1
102
RTVSPropertyOp15
 70
     1
102
RTVSPropertyOp16
 70
     1
102
RTVSPropertyOp17
 70
     1
102
RTVSPropertyOp18
 70
     1
102
RTVSPropertyOp19
 70
     1
102
RTVSPropertyOp20
 70
     1
102
RTVSPropertyOp21
 70
     1
102
RTVSPropertyOp22
 70
     1
102
RTVSPropertyOp23
 70
     1
102
RTVSPropertyOp24
 70
     1
102
RTVSPropertyOp25
 70
     1
102
RTVSPropertyOp26
 70
     1
102
RTVSPropertyOp27
 70
     1
102
RTVSPropertyOp28
 70
     1
102
RTVSPropertyOp29
 70
     1
102
RTVSPropertyOp30
 70
     1
102
RTVSPropertyOp31
 70
     1
102
RTVSPropertyOp32
 70
     1
102
RTVSPropertyOp33
 70
     1
102
RTVSPropertyOp34
 70
     1
102
RTVSPropertyOp35
 70
     1
102
RTVSPropertyOp36
 70
     1
102
RTVSPropertyOp37
 70
     1
102
RTVSPropertyOp38
 70
     1
102
RTVSPropertyOp39
 70
     1
102
RTVSPropertyOp40
 70
     1
102
RTVSPropertyOp41
 70
     1
102
RTVSPropertyOp42
 70
     1
102
RTVSPropertyOp43
 70
     1
102
RTVSPropertyOp44
 70
     1
102
RTVSPropertyOp45
 70
     1
102
RTVSPropertyOp46
 70
     1
102
RTVSPropertyOp47
 70
     1
102
RTVSPropertyOp48
 70
     1
102
RTVSPropertyOp49
 70
     1
102
RTVSPropertyOp50
 70
     1
102
RTVSPropertyOp51
 70
     0
102
RTVSPropertyOp52
 70
     0
102
RTVSPropertyOp53
 70
     1
102
RTVSPropertyOp54
 70
     1
102
RTVSPropertyOp55
 70
     1
102
RTVSPropertyOp56
 70
     1
102
RTVSPropertyOp57
 70
     1
102
RTVSPropertyOp58
 70
     1
102
RTVSPropertyOp59
 70
     1
102
RTVSPropertyOp60
 70
     1
102
RTVSPropertyOp61
 70
     1
102
RTVSPropertyOp62
 70
     1
  0
XRECORD
  5
85E
102
{ACAD_REACTORS
330
85D
102
}
330
85D
100
AcDbXrecord
280
     1
102
RTVSPost2010Prop28
280
     0
102
RTVSPost2010PropOp28
 70
     1
102
RTVSPost2010Prop29
280
     1
102
RTVSPost2010PropOp29
 70
     1
102
RTVSPost2010Prop30
280
     1
102
RTVSPost2010PropOp30
 70
     1
102
RTVSPost2010Prop31
280
     0
102
RTVSPost2010PropOp31
 70
     1
102
RTVSPost2010Prop32
280
     0
102
RTVSPost2010PropOp32
 70
     1
102
RTVSPost2010Prop33
280
     0
102
RTVSPost2010PropOp33
 70
     1
102
RTVSPost2010Prop34
280
     0
102
RTVSPost2010PropOp34
 70
     1
102
RTVSPost2010Prop35
280
     0
102
RTVSPost2010PropOp35
 70
     1
102
RTVSPost2010Prop36
280
     0
102
RTVSPost2010PropOp36
 70
     1
102
RTVSPost2010Prop37
 90
       50
102
RTVSPost2010PropOp37
 70
     1
102
RTVSPost2010Prop38
140
0.0
102
RTVSPost2010PropOp38
 70
     1
102
RTVSPost2010Prop39
140
1.0
102
RTVSPost2010PropOp39
 70
     1
102
RTVSPost2010Prop40
 90
        0
102
RTVSPost2010PropOp40
 70
     1
102
RTVSPost2010Prop41ColorIndex
 90
       18
102
RTVSPost2010Prop41ColorRGB
 90
        0
102
RTVSPost2010PropOp41
 70
     1
102
RTVSPost2010Prop42
 90
       50
102
RTVSPost2010PropOp42
 70
     1
102
RTVSPost2010Prop43
 90
        3
102
RTVSPost2010PropOp43
 70
     1
102
RTVSPost2010Prop44ColorIndex
 90
        5
102
RTVSPost2010Prop44ColorRGB
 90
      255
102
RTVSPost2010PropOp44
 70
     1
102
RTVSPost2010Prop45
280
     0
102
RTVSPost2010PropOp45
 70
     1
102
RTVSPost2010Prop46
 90
       50
102
RTVSPost2010PropOp46
 70
     1
102
RTVSPost2010Prop47
 90
       50
102
RTVSPost2010PropOp47
 70
     1
102
RTVSPost2010Prop48
 90
       50
102
RTVSPost2010PropOp48
 70
     1
102
RTVSPost2010Prop49
280
     0
102
RTVSPost2010PropOp49
 70
     1
102
RTVSPost2010Prop50
 90
       50
102
RTVSPost2010PropOp50
 70
     1
102
RTVSPost2010Prop51ColorIndex
 90
      256
102
RTVSPost2010Prop51ColorRGB
 90
-16777216
102
RTVSPost2010PropOp51
 70
     0
102
RTVSPost2010Prop52
140
1.0
102
RTVSPost2010PropOp52
 70
     0
102
RTVSPost2010Prop53
 90
        2
102
RTVSPost2010PropOp53
 70
     1
102
RTVSPost2010Prop54
  1
strokes_ogs.tif
102
RTVSPost2010PropOp54
 70
     1
102
RTVSPost2010Prop55
280
     0
102
RTVSPost2010PropOp55
 70
     1
102
RTVSPost2010Prop56
140
1.0
102
RTVSPost2010PropOp56
 70
     1
102
RTVSPost2010Prop57
140
1.0
102
RTVSPost2010PropOp57
 70
     1
102
RTVSPropertyOp0
 70
     0
102
RTVSPropertyOp1
 70
     0
102
RTVSPropertyOp2
 70
     0
102
RTVSPropertyOp3
 70
     0
102
RTVSPropertyOp4
 70
     0
102
RTVSPropertyOp5
 70
     0
102
RTVSPropertyOp6
 70
     0
102
RTVSPropertyOp7
 70
     0
102
RTVSPropertyOp8
 70
     0
102
RTVSPropertyOp9
 70
     0
102
RTVSPropertyOp10
 70
     0
102
RTVSPropertyOp11
 70
     0
102
RTVSPropertyOp12
 70
     0
102
RTVSPropertyOp13
 70
     0
102
RTVSPropertyOp14
 70
     2
102
RTVSPropertyOp15
 70
     0
102
RTVSPropertyOp16
 70
     0
102
RTVSPropertyOp17
 70
     0
102
RTVSPropertyOp18
 70
     0
102
RTVSPropertyOp19
 70
     0
102
RTVSPropertyOp20
 70
     0
102
RTVSPropertyOp21
 70
     0
102
RTVSPropertyOp22
 70
     0
102
RTVSPropertyOp23
 70
     0
102
RTVSPropertyOp24
 70
     0
102
RTVSPropertyOp25
 70
     0
102
RTVSPropertyOp26
 70
     0
102
RTVSPropertyOp27
 70
     0
102
RTVSPropertyOp28
 70
     1
102
RTVSPropertyOp29
 70
     1
102
RTVSPropertyOp30
 70
     1
102
RTVSPropertyOp31
 70
     1
102
RTVSPropertyOp32
 70
     1
102
RTVSPropertyOp33
 70
     1
102
RTVSPropertyOp34
 70
     1
102
RTVSPropertyOp35
 70
     1
102
RTVSPropertyOp36
 70
     1
102
RTVSPropertyOp37
 70
     1
102
RTVSPropertyOp38
 70
     1
102
RTVSPropertyOp39
 70
     1
102
RTVSPropertyOp40
 70
     1
102
RTVSPropertyOp41
 70
     1
102
RTVSPropertyOp42
 70
     1
102
RTVSPropertyOp43
 70
     1
102
RTVSPropertyOp44
 70
     1
102
RTVSPropertyOp45
 70
     1
102
RTVSPropertyOp46
 70
     1
102
RTVSPropertyOp47
 70
     1
102
RTVSPropertyOp48
 70
     1
102
RTVSPropertyOp49
 70
     1
102
RTVSPropertyOp50
 70
     1
102
RTVSPropertyOp51
 70
     0
102
RTVSPropertyOp52
 70
     0
102
RTVSPropertyOp53
 70
     1
102
RTVSPropertyOp54
 70
     1
102
RTVSPropertyOp55
 70
     1
102
RTVSPropertyOp56
 70
     1
102
RTVSPropertyOp57
 70
     1
102
RTVSPropertyOp58
 70
     1
102
RTVSPropertyOp59
 70
     1
102
RTVSPropertyOp60
 70
     1
102
RTVSPropertyOp61
 70
     1
102
RTVSPropertyOp62
 70
     1
  0
XRECORD
  5
84E
102
{ACAD_REACTORS
330
84D
102
}
330
84D
100
AcDbXrecord
280
     1
102
RTVSPost2010Prop28
280
     0
102
RTVSPost2010PropOp28
 70
     1
102
RTVSPost2010Prop29
280
     1
102
RTVSPost2010PropOp29
 70
     1
102
RTVSPost2010Prop30
280
     1
102
RTVSPost2010PropOp30
 70
     1
102
RTVSPost2010Prop31
280
     0
102
RTVSPost2010PropOp31
 70
     1
102
RTVSPost2010Prop32
280
     0
102
RTVSPost2010PropOp32
 70
     1
102
RTVSPost2010Prop33
280
     0
102
RTVSPost2010PropOp33
 70
     1
102
RTVSPost2010Prop34
280
     0
102
RTVSPost2010PropOp34
 70
     1
102
RTVSPost2010Prop35
280
     0
102
RTVSPost2010PropOp35
 70
     1
102
RTVSPost2010Prop36
280
     0
102
RTVSPost2010PropOp36
 70
     1
102
RTVSPost2010Prop37
 90
       50
102
RTVSPost2010PropOp37
 70
     1
102
RTVSPost2010Prop38
140
0.0
102
RTVSPost2010PropOp38
 70
     1
102
RTVSPost2010Prop39
140
1.0
102
RTVSPost2010PropOp39
 70
     1
102
RTVSPost2010Prop40
 90
        0
102
RTVSPost2010PropOp40
 70
     1
102
RTVSPost2010Prop41ColorIndex
 90
       18
102
RTVSPost2010Prop41ColorRGB
 90
        0
102
RTVSPost2010PropOp41
 70
     1
102
RTVSPost2010Prop42
 90
       50
102
RTVSPost2010PropOp42
 70
     1
102
RTVSPost2010Prop43
 90
        3
102
RTVSPost2010PropOp43
 70
     1
102
RTVSPost2010Prop44ColorIndex
 90
        5
102
RTVSPost2010Prop44ColorRGB
 90
      255
102
RTVSPost2010PropOp44
 70
     1
102
RTVSPost2010Prop45
280
     0
102
RTVSPost2010PropOp45
 70
     1
102
RTVSPost2010Prop46
 90
       50
102
RTVSPost2010PropOp46
 70
     1
102
RTVSPost2010Prop47
 90
       50
102
RTVSPost2010PropOp47
 70
     1
102
RTVSPost2010Prop48
 90
       50
102
RTVSPost2010PropOp48
 70
     1
102
RTVSPost2010Prop49
280
     0
102
RTVSPost2010PropOp49
 70
     1
102
RTVSPost2010Prop50
 90
       50
102
RTVSPost2010PropOp50
 70
     1
102
RTVSPost2010Prop51ColorIndex
 90
      256
102
RTVSPost2010Prop51ColorRGB
 90
-16777216
102
RTVSPost2010PropOp51
 70
     0
102
RTVSPost2010Prop52
140
1.0
102
RTVSPost2010PropOp52
 70
     0
102
RTVSPost2010Prop53
 90
        2
102
RTVSPost2010PropOp53
 70
     1
102
RTVSPost2010Prop54
  1
strokes_ogs.tif
102
RTVSPost2010PropOp54
 70
     1
102
RTVSPost2010Prop55
280
     0
102
RTVSPost2010PropOp55
 70
     1
102
RTVSPost2010Prop56
140
1.0
102
RTVSPost2010PropOp56
 70
     1
102
RTVSPost2010Prop57
140
1.0
102
RTVSPost2010PropOp57
 70
     1
102
RTVSPropertyOp0
 70
     1
102
RTVSPropertyOp1
 70
     1
102
RTVSPropertyOp2
 70
     1
102
RTVSPropertyOp3
 70
     1
102
RTVSPropertyOp4
 70
     1
102
RTVSPropertyOp5
 70
     1
102
RTVSPropertyOp6
 70
     1
102
RTVSPropertyOp7
 70
     1
102
RTVSPropertyOp8
 70
     1
102
RTVSPropertyOp9
 70
     1
102
RTVSPropertyOp10
 70
     1
102
RTVSPropertyOp11
 70
     1
102
RTVSPropertyOp12
 70
     1
102
RTVSPropertyOp13
 70
     1
102
RTVSPropertyOp14
 70
     1
102
RTVSPropertyOp15
 70
     1
102
RTVSPropertyOp16
 70
     1
102
RTVSPropertyOp17
 70
     1
102
RTVSPropertyOp18
 70
     1
102
RTVSPropertyOp19
 70
     1
102
RTVSPropertyOp20
 70
     1
102
RTVSPropertyOp21
 70
     1
102
RTVSPropertyOp22
 70
     1
102
RTVSPropertyOp23
 70
     1
102
RTVSPropertyOp24
 70
     1
102
RTVSPropertyOp25
 70
     1
102
RTVSPropertyOp26
 70
     1
102
RTVSPropertyOp27
 70
     1
102
RTVSPropertyOp28
 70
     1
102
RTVSPropertyOp29
 70
     1
102
RTVSPropertyOp30
 70
     1
102
RTVSPropertyOp31
 70
     1
102
RTVSPropertyOp32
 70
     1
102
RTVSPropertyOp33
 70
     1
102
RTVSPropertyOp34
 70
     1
102
RTVSPropertyOp35
 70
     1
102
RTVSPropertyOp36
 70
     1
102
RTVSPropertyOp37
 70
     1
102
RTVSPropertyOp38
 70
     1
102
RTVSPropertyOp39
 70
     1
102
RTVSPropertyOp40
 70
     1
102
RTVSPropertyOp41
 70
     1
102
RTVSPropertyOp42
 70
     1
102
RTVSPropertyOp43
 70
     1
102
RTVSPropertyOp44
 70
     1
102
RTVSPropertyOp45
 70
     1
102
RTVSPropertyOp46
 70
     1
102
RTVSPropertyOp47
 70
     1
102
RTVSPropertyOp48
 70
     1
102
RTVSPropertyOp49
 70
     1
102
RTVSPropertyOp50
 70
     1
102
RTVSPropertyOp51
 70
     0
102
RTVSPropertyOp52
 70
     0
102
RTVSPropertyOp53
 70
     1
102
RTVSPropertyOp54
 70
     1
102
RTVSPropertyOp55
 70
     1
102
RTVSPropertyOp56
 70
     1
102
RTVSPropertyOp57
 70
     1
102
RTVSPropertyOp58
 70
     1
102
RTVSPropertyOp59
 70
     1
102
RTVSPropertyOp60
 70
     1
102
RTVSPropertyOp61
 70
     1
102
RTVSPropertyOp62
 70
     1
  0
XRECORD
  5
86A
102
{ACAD_REACTORS
330
869
102
}
330
869
100
AcDbXrecord
280
     1
102
RTVSPost2010Prop28
280
     0
102
RTVSPost2010PropOp28
 70
     1
102
RTVSPost2010Prop29
280
     1
102
RTVSPost2010PropOp29
 70
     1
102
RTVSPost2010Prop30
280
     1
102
RTVSPost2010PropOp30
 70
     1
102
RTVSPost2010Prop31
280
     0
102
RTVSPost2010PropOp31
 70
     1
102
RTVSPost2010Prop32
280
     0
102
RTVSPost2010PropOp32
 70
     1
102
RTVSPost2010Prop33
280
     0
102
RTVSPost2010PropOp33
 70
     1
102
RTVSPost2010Prop34
280
     0
102
RTVSPost2010PropOp34
 70
     1
102
RTVSPost2010Prop35
280
     0
102
RTVSPost2010PropOp35
 70
     1
102
RTVSPost2010Prop36
280
     0
102
RTVSPost2010PropOp36
 70
     1
102
RTVSPost2010Prop37
 90
       50
102
RTVSPost2010PropOp37
 70
     1
102
RTVSPost2010Prop38
140
0.0
102
RTVSPost2010PropOp38
 70
     1
102
RTVSPost2010Prop39
140
1.0
102
RTVSPost2010PropOp39
 70
     1
102
RTVSPost2010Prop40
 90
        0
102
RTVSPost2010PropOp40
 70
     1
102
RTVSPost2010Prop41ColorIndex
 90
       18
102
RTVSPost2010Prop41ColorRGB
 90
        0
102
RTVSPost2010PropOp41
 70
     1
102
RTVSPost2010Prop42
 90
       50
102
RTVSPost2010PropOp42
 70
     1
102
RTVSPost2010Prop43
 90
        3
102
RTVSPost2010PropOp43
 70
     1
102
RTVSPost2010Prop44ColorIndex
 90
        5
102
RTVSPost2010Prop44ColorRGB
 90
      255
102
RTVSPost2010PropOp44
 70
     1
102
RTVSPost2010Prop45
280
     0
102
RTVSPost2010PropOp45
 70
     1
102
RTVSPost2010Prop46
 90
       50
102
RTVSPost2010PropOp46
 70
     1
102
RTVSPost2010Prop47
 90
       50
102
RTVSPost2010PropOp47
 70
     1
102
RTVSPost2010Prop48
 90
       50
102
RTVSPost2010PropOp48
 70
     1
102
RTVSPost2010Prop49
280
     0
102
RTVSPost2010PropOp49
 70
     1
102
RTVSPost2010Prop50
 90
       50
102
RTVSPost2010PropOp50
 70
     1
102
RTVSPost2010Prop51ColorIndex
 90
      256
102
RTVSPost2010Prop51ColorRGB
 90
-16777216
102
RTVSPost2010PropOp51
 70
     0
102
RTVSPost2010Prop52
140
1.0
102
RTVSPost2010PropOp52
 70
     0
102
RTVSPost2010Prop53
 90
        2
102
RTVSPost2010PropOp53
 70
     1
102
RTVSPost2010Prop54
  1
strokes_ogs.tif
102
RTVSPost2010PropOp54
 70
     1
102
RTVSPost2010Prop55
280
     0
102
RTVSPost2010PropOp55
 70
     1
102
RTVSPost2010Prop56
140
1.0
102
RTVSPost2010PropOp56
 70
     1
102
RTVSPost2010Prop57
140
1.0
102
RTVSPost2010PropOp57
 70
     1
102
RTVSPropertyOp0
 70
     1
102
RTVSPropertyOp1
 70
     1
102
RTVSPropertyOp2
 70
     1
102
RTVSPropertyOp3
 70
     1
102
RTVSPropertyOp4
 70
     1
102
RTVSPropertyOp5
 70
     1
102
RTVSPropertyOp6
 70
     1
102
RTVSPropertyOp7
 70
     1
102
RTVSPropertyOp8
 70
     1
102
RTVSPropertyOp9
 70
     1
102
RTVSPropertyOp10
 70
     1
102
RTVSPropertyOp11
 70
     1
102
RTVSPropertyOp12
 70
     1
102
RTVSPropertyOp13
 70
     1
102
RTVSPropertyOp14
 70
     1
102
RTVSPropertyOp15
 70
     1
102
RTVSPropertyOp16
 70
     1
102
RTVSPropertyOp17
 70
     1
102
RTVSPropertyOp18
 70
     1
102
RTVSPropertyOp19
 70
     1
102
RTVSPropertyOp20
 70
     1
102
RTVSPropertyOp21
 70
     1
102
RTVSPropertyOp22
 70
     1
102
RTVSPropertyOp23
 70
     1
102
RTVSPropertyOp24
 70
     1
102
RTVSPropertyOp25
 70
     1
102
RTVSPropertyOp26
 70
     1
102
RTVSPropertyOp27
 70
     1
102
RTVSPropertyOp28
 70
     1
102
RTVSPropertyOp29
 70
     1
102
RTVSPropertyOp30
 70
     1
102
RTVSPropertyOp31
 70
     1
102
RTVSPropertyOp32
 70
     1
102
RTVSPropertyOp33
 70
     1
102
RTVSPropertyOp34
 70
     1
102
RTVSPropertyOp35
 70
     1
102
RTVSPropertyOp36
 70
     1
102
RTVSPropertyOp37
 70
     1
102
RTVSPropertyOp38
 70
     1
102
RTVSPropertyOp39
 70
     1
102
RTVSPropertyOp40
 70
     1
102
RTVSPropertyOp41
 70
     1
102
RTVSPropertyOp42
 70
     1
102
RTVSPropertyOp43
 70
     1
102
RTVSPropertyOp44
 70
     1
102
RTVSPropertyOp45
 70
     1
102
RTVSPropertyOp46
 70
     1
102
RTVSPropertyOp47
 70
     1
102
RTVSPropertyOp48
 70
     1
102
RTVSPropertyOp49
 70
     1
102
RTVSPropertyOp50
 70
     1
102
RTVSPropertyOp51
 70
     0
102
RTVSPropertyOp52
 70
     0
102
RTVSPropertyOp53
 70
     1
102
RTVSPropertyOp54
 70
     1
102
RTVSPropertyOp55
 70
     1
102
RTVSPropertyOp56
 70
     1
102
RTVSPropertyOp57
 70
     1
102
RTVSPropertyOp58
 70
     1
102
RTVSPropertyOp59
 70
     1
102
RTVSPropertyOp60
 70
     1
102
RTVSPropertyOp61
 70
     1
102
RTVSPropertyOp62
 70
     1
  0
XRECORD
  5
868
102
{ACAD_REACTORS
330
867
102
}
330
867
100
AcDbXrecord
280
     1
102
RTVSPost2010Prop28
280
     0
102
RTVSPost2010PropOp28
 70
     1
102
RTVSPost2010Prop29
280
     1
102
RTVSPost2010PropOp29
 70
     1
102
RTVSPost2010Prop30
280
     1
102
RTVSPost2010PropOp30
 70
     1
102
RTVSPost2010Prop31
280
     0
102
RTVSPost2010PropOp31
 70
     1
102
RTVSPost2010Prop32
280
     0
102
RTVSPost2010PropOp32
 70
     1
102
RTVSPost2010Prop33
280
     0
102
RTVSPost2010PropOp33
 70
     1
102
RTVSPost2010Prop34
280
     0
102
RTVSPost2010PropOp34
 70
     1
102
RTVSPost2010Prop35
280
     0
102
RTVSPost2010PropOp35
 70
     1
102
RTVSPost2010Prop36
280
     0
102
RTVSPost2010PropOp36
 70
     1
102
RTVSPost2010Prop37
 90
       50
102
RTVSPost2010PropOp37
 70
     1
102
RTVSPost2010Prop38
140
0.0
102
RTVSPost2010PropOp38
 70
     1
102
RTVSPost2010Prop39
140
1.0
102
RTVSPost2010PropOp39
 70
     1
102
RTVSPost2010Prop40
 90
        0
102
RTVSPost2010PropOp40
 70
     1
102
RTVSPost2010Prop41ColorIndex
 90
       18
102
RTVSPost2010Prop41ColorRGB
 90
        0
102
RTVSPost2010PropOp41
 70
     1
102
RTVSPost2010Prop42
 90
       50
102
RTVSPost2010PropOp42
 70
     1
102
RTVSPost2010Prop43
 90
        3
102
RTVSPost2010PropOp43
 70
     1
102
RTVSPost2010Prop44ColorIndex
 90
        5
102
RTVSPost2010Prop44ColorRGB
 90
      255
102
RTVSPost2010PropOp44
 70
     1
102
RTVSPost2010Prop45
280
     0
102
RTVSPost2010PropOp45
 70
     1
102
RTVSPost2010Prop46
 90
       50
102
RTVSPost2010PropOp46
 70
     1
102
RTVSPost2010Prop47
 90
       50
102
RTVSPost2010PropOp47
 70
     1
102
RTVSPost2010Prop48
 90
       50
102
RTVSPost2010PropOp48
 70
     1
102
RTVSPost2010Prop49
280
     0
102
RTVSPost2010PropOp49
 70
     1
102
RTVSPost2010Prop50
 90
       50
102
RTVSPost2010PropOp50
 70
     1
102
RTVSPost2010Prop51ColorIndex
 90
      256
102
RTVSPost2010Prop51ColorRGB
 90
-16777216
102
RTVSPost2010PropOp51
 70
     0
102
RTVSPost2010Prop52
140
1.0
102
RTVSPost2010PropOp52
 70
     0
102
RTVSPost2010Prop53
 90
        2
102
RTVSPost2010PropOp53
 70
     1
102
RTVSPost2010Prop54
  1
strokes_ogs.tif
102
RTVSPost2010PropOp54
 70
     1
102
RTVSPost2010Prop55
280
     0
102
RTVSPost2010PropOp55
 70
     1
102
RTVSPost2010Prop56
140
1.0
102
RTVSPost2010PropOp56
 70
     1
102
RTVSPost2010Prop57
140
1.0
102
RTVSPost2010PropOp57
 70
     1
102
RTVSPropertyOp0
 70
     1
102
RTVSPropertyOp1
 70
     1
102
RTVSPropertyOp2
 70
     1
102
RTVSPropertyOp3
 70
     1
102
RTVSPropertyOp4
 70
     1
102
RTVSPropertyOp5
 70
     1
102
RTVSPropertyOp6
 70
     1
102
RTVSPropertyOp7
 70
     1
102
RTVSPropertyOp8
 70
     1
102
RTVSPropertyOp9
 70
     1
102
RTVSPropertyOp10
 70
     1
102
RTVSPropertyOp11
 70
     1
102
RTVSPropertyOp12
 70
     1
102
RTVSPropertyOp13
 70
     1
102
RTVSPropertyOp14
 70
     1
102
RTVSPropertyOp15
 70
     1
102
RTVSPropertyOp16
 70
     1
102
RTVSPropertyOp17
 70
     1
102
RTVSPropertyOp18
 70
     1
102
RTVSPropertyOp19
 70
     1
102
RTVSPropertyOp20
 70
     1
102
RTVSPropertyOp21
 70
     1
102
RTVSPropertyOp22
 70
     1
102
RTVSPropertyOp23
 70
     1
102
RTVSPropertyOp24
 70
     1
102
RTVSPropertyOp25
 70
     1
102
RTVSPropertyOp26
 70
     1
102
RTVSPropertyOp27
 70
     1
102
RTVSPropertyOp28
 70
     1
102
RTVSPropertyOp29
 70
     1
102
RTVSPropertyOp30
 70
     1
102
RTVSPropertyOp31
 70
     1
102
RTVSPropertyOp32
 70
     1
102
RTVSPropertyOp33
 70
     1
102
RTVSPropertyOp34
 70
     1
102
RTVSPropertyOp35
 70
     1
102
RTVSPropertyOp36
 70
     1
102
RTVSPropertyOp37
 70
     1
102
RTVSPropertyOp38
 70
     1
102
RTVSPropertyOp39
 70
     1
102
RTVSPropertyOp40
 70
     1
102
RTVSPropertyOp41
 70
     1
102
RTVSPropertyOp42
 70
     1
102
RTVSPropertyOp43
 70
     1
102
RTVSPropertyOp44
 70
     1
102
RTVSPropertyOp45
 70
     1
102
RTVSPropertyOp46
 70
     1
102
RTVSPropertyOp47
 70
     1
102
RTVSPropertyOp48
 70
     1
102
RTVSPropertyOp49
 70
     1
102
RTVSPropertyOp50
 70
     1
102
RTVSPropertyOp51
 70
     0
102
RTVSPropertyOp52
 70
     0
102
RTVSPropertyOp53
 70
     1
102
RTVSPropertyOp54
 70
     1
102
RTVSPropertyOp55
 70
     1
102
RTVSPropertyOp56
 70
     1
102
RTVSPropertyOp57
 70
     1
102
RTVSPropertyOp58
 70
     1
102
RTVSPropertyOp59
 70
     1
102
RTVSPropertyOp60
 70
     1
102
RTVSPropertyOp61
 70
     1
102
RTVSPropertyOp62
 70
     1
  0
XRECORD
  5
862
102
{ACAD_REACTORS
330
861
102
}
330
861
100
AcDbXrecord
280
     1
102
RTVSPost2010Prop28
280
     0
102
RTVSPost2010PropOp28
 70
     1
102
RTVSPost2010Prop29
280
     1
102
RTVSPost2010PropOp29
 70
     1
102
RTVSPost2010Prop30
280
     1
102
RTVSPost2010PropOp30
 70
     1
102
RTVSPost2010Prop31
280
     0
102
RTVSPost2010PropOp31
 70
     1
102
RTVSPost2010Prop32
280
     0
102
RTVSPost2010PropOp32
 70
     1
102
RTVSPost2010Prop33
280
     0
102
RTVSPost2010PropOp33
 70
     1
102
RTVSPost2010Prop34
280
     0
102
RTVSPost2010PropOp34
 70
     1
102
RTVSPost2010Prop35
280
     0
102
RTVSPost2010PropOp35
 70
     1
102
RTVSPost2010Prop36
280
     0
102
RTVSPost2010PropOp36
 70
     1
102
RTVSPost2010Prop37
 90
       50
102
RTVSPost2010PropOp37
 70
     1
102
RTVSPost2010Prop38
140
0.0
102
RTVSPost2010PropOp38
 70
     1
102
RTVSPost2010Prop39
140
1.0
102
RTVSPost2010PropOp39
 70
     1
102
RTVSPost2010Prop40
 90
        0
102
RTVSPost2010PropOp40
 70
     1
102
RTVSPost2010Prop41ColorIndex
 90
       18
102
RTVSPost2010Prop41ColorRGB
 90
        0
102
RTVSPost2010PropOp41
 70
     1
102
RTVSPost2010Prop42
 90
       50
102
RTVSPost2010PropOp42
 70
     1
102
RTVSPost2010Prop43
 90
        3
102
RTVSPost2010PropOp43
 70
     1
102
RTVSPost2010Prop44ColorIndex
 90
        5
102
RTVSPost2010Prop44ColorRGB
 90
      255
102
RTVSPost2010PropOp44
 70
     1
102
RTVSPost2010Prop45
280
     0
102
RTVSPost2010PropOp45
 70
     1
102
RTVSPost2010Prop46
 90
       50
102
RTVSPost2010PropOp46
 70
     1
102
RTVSPost2010Prop47
 90
       50
102
RTVSPost2010PropOp47
 70
     1
102
RTVSPost2010Prop48
 90
       50
102
RTVSPost2010PropOp48
 70
     1
102
RTVSPost2010Prop49
280
     0
102
RTVSPost2010PropOp49
 70
     1
102
RTVSPost2010Prop50
 90
       50
102
RTVSPost2010PropOp50
 70
     1
102
RTVSPost2010Prop51ColorIndex
 90
      256
102
RTVSPost2010Prop51ColorRGB
 90
-16777216
102
RTVSPost2010PropOp51
 70
     0
102
RTVSPost2010Prop52
140
1.0
102
RTVSPost2010PropOp52
 70
     0
102
RTVSPost2010Prop53
 90
        2
102
RTVSPost2010PropOp53
 70
     1
102
RTVSPost2010Prop54
  1
strokes_ogs.tif
102
RTVSPost2010PropOp54
 70
     1
102
RTVSPost2010Prop55
280
     0
102
RTVSPost2010PropOp55
 70
     1
102
RTVSPost2010Prop56
140
1.0
102
RTVSPost2010PropOp56
 70
     1
102
RTVSPost2010Prop57
140
1.0
102
RTVSPost2010PropOp57
 70
     1
102
RTVSPropertyOp0
 70
     1
102
RTVSPropertyOp1
 70
     1
102
RTVSPropertyOp2
 70
     1
102
RTVSPropertyOp3
 70
     1
102
RTVSPropertyOp4
 70
     1
102
RTVSPropertyOp5
 70
     1
102
RTVSPropertyOp6
 70
     1
102
RTVSPropertyOp7
 70
     1
102
RTVSPropertyOp8
 70
     1
102
RTVSPropertyOp9
 70
     1
102
RTVSPropertyOp10
 70
     1
102
RTVSPropertyOp11
 70
     1
102
RTVSPropertyOp12
 70
     1
102
RTVSPropertyOp13
 70
     1
102
RTVSPropertyOp14
 70
     1
102
RTVSPropertyOp15
 70
     1
102
RTVSPropertyOp16
 70
     1
102
RTVSPropertyOp17
 70
     1
102
RTVSPropertyOp18
 70
     1
102
RTVSPropertyOp19
 70
     1
102
RTVSPropertyOp20
 70
     1
102
RTVSPropertyOp21
 70
     1
102
RTVSPropertyOp22
 70
     1
102
RTVSPropertyOp23
 70
     1
102
RTVSPropertyOp24
 70
     1
102
RTVSPropertyOp25
 70
     1
102
RTVSPropertyOp26
 70
     1
102
RTVSPropertyOp27
 70
     1
102
RTVSPropertyOp28
 70
     1
102
RTVSPropertyOp29
 70
     1
102
RTVSPropertyOp30
 70
     1
102
RTVSPropertyOp31
 70
     1
102
RTVSPropertyOp32
 70
     1
102
RTVSPropertyOp33
 70
     1
102
RTVSPropertyOp34
 70
     1
102
RTVSPropertyOp35
 70
     1
102
RTVSPropertyOp36
 70
     1
102
RTVSPropertyOp37
 70
     1
102
RTVSPropertyOp38
 70
     1
102
RTVSPropertyOp39
 70
     1
102
RTVSPropertyOp40
 70
     1
102
RTVSPropertyOp41
 70
     1
102
RTVSPropertyOp42
 70
     1
102
RTVSPropertyOp43
 70
     1
102
RTVSPropertyOp44
 70
     1
102
RTVSPropertyOp45
 70
     1
102
RTVSPropertyOp46
 70
     1
102
RTVSPropertyOp47
 70
     1
102
RTVSPropertyOp48
 70
     1
102
RTVSPropertyOp49
 70
     1
102
RTVSPropertyOp50
 70
     1
102
RTVSPropertyOp51
 70
     0
102
RTVSPropertyOp52
 70
     0
102
RTVSPropertyOp53
 70
     1
102
RTVSPropertyOp54
 70
     1
102
RTVSPropertyOp55
 70
     1
102
RTVSPropertyOp56
 70
     1
102
RTVSPropertyOp57
 70
     1
102
RTVSPropertyOp58
 70
     1
102
RTVSPropertyOp59
 70
     1
102
RTVSPropertyOp60
 70
     1
102
RTVSPropertyOp61
 70
     1
102
RTVSPropertyOp62
 70
     1
  0
XRECORD
  5
864
102
{ACAD_REACTORS
330
863
102
}
330
863
100
AcDbXrecord
280
     1
102
RTVSPost2010Prop28
280
     0
102
RTVSPost2010PropOp28
 70
     1
102
RTVSPost2010Prop29
280
     1
102
RTVSPost2010PropOp29
 70
     1
102
RTVSPost2010Prop30
280
     1
102
RTVSPost2010PropOp30
 70
     1
102
RTVSPost2010Prop31
280
     0
102
RTVSPost2010PropOp31
 70
     1
102
RTVSPost2010Prop32
280
     0
102
RTVSPost2010PropOp32
 70
     1
102
RTVSPost2010Prop33
280
     0
102
RTVSPost2010PropOp33
 70
     1
102
RTVSPost2010Prop34
280
     0
102
RTVSPost2010PropOp34
 70
     1
102
RTVSPost2010Prop35
280
     0
102
RTVSPost2010PropOp35
 70
     1
102
RTVSPost2010Prop36
280
     0
102
RTVSPost2010PropOp36
 70
     1
102
RTVSPost2010Prop37
 90
       50
102
RTVSPost2010PropOp37
 70
     1
102
RTVSPost2010Prop38
140
0.0
102
RTVSPost2010PropOp38
 70
     1
102
RTVSPost2010Prop39
140
1.0
102
RTVSPost2010PropOp39
 70
     1
102
RTVSPost2010Prop40
 90
        0
102
RTVSPost2010PropOp40
 70
     1
102
RTVSPost2010Prop41ColorIndex
 90
       18
102
RTVSPost2010Prop41ColorRGB
 90
        0
102
RTVSPost2010PropOp41
 70
     1
102
RTVSPost2010Prop42
 90
       50
102
RTVSPost2010PropOp42
 70
     1
102
RTVSPost2010Prop43
 90
        3
102
RTVSPost2010PropOp43
 70
     1
102
RTVSPost2010Prop44ColorIndex
 90
        5
102
RTVSPost2010Prop44ColorRGB
 90
      255
102
RTVSPost2010PropOp44
 70
     1
102
RTVSPost2010Prop45
280
     0
102
RTVSPost2010PropOp45
 70
     1
102
RTVSPost2010Prop46
 90
       50
102
RTVSPost2010PropOp46
 70
     1
102
RTVSPost2010Prop47
 90
       50
102
RTVSPost2010PropOp47
 70
     1
102
RTVSPost2010Prop48
 90
       50
102
RTVSPost2010PropOp48
 70
     1
102
RTVSPost2010Prop49
280
     0
102
RTVSPost2010PropOp49
 70
     1
102
RTVSPost2010Prop50
 90
       50
102
RTVSPost2010PropOp50
 70
     1
102
RTVSPost2010Prop51ColorIndex
 90
      256
102
RTVSPost2010Prop51ColorRGB
 90
-16777216
102
RTVSPost2010PropOp51
 70
     0
102
RTVSPost2010Prop52
140
1.0
102
RTVSPost2010PropOp52
 70
     0
102
RTVSPost2010Prop53
 90
        2
102
RTVSPost2010PropOp53
 70
     1
102
RTVSPost2010Prop54
  1
strokes_ogs.tif
102
RTVSPost2010PropOp54
 70
     1
102
RTVSPost2010Prop55
280
     0
102
RTVSPost2010PropOp55
 70
     1
102
RTVSPost2010Prop56
140
1.0
102
RTVSPost2010PropOp56
 70
     1
102
RTVSPost2010Prop57
140
1.0
102
RTVSPost2010PropOp57
 70
     1
102
RTVSPropertyOp0
 70
     1
102
RTVSPropertyOp1
 70
     1
102
RTVSPropertyOp2
 70
     1
102
RTVSPropertyOp3
 70
     1
102
RTVSPropertyOp4
 70
     1
102
RTVSPropertyOp5
 70
     1
102
RTVSPropertyOp6
 70
     1
102
RTVSPropertyOp7
 70
     1
102
RTVSPropertyOp8
 70
     1
102
RTVSPropertyOp9
 70
     1
102
RTVSPropertyOp10
 70
     1
102
RTVSPropertyOp11
 70
     1
102
RTVSPropertyOp12
 70
     1
102
RTVSPropertyOp13
 70
     1
102
RTVSPropertyOp14
 70
     1
102
RTVSPropertyOp15
 70
     1
102
RTVSPropertyOp16
 70
     1
102
RTVSPropertyOp17
 70
     1
102
RTVSPropertyOp18
 70
     1
102
RTVSPropertyOp19
 70
     1
102
RTVSPropertyOp20
 70
     1
102
RTVSPropertyOp21
 70
     1
102
RTVSPropertyOp22
 70
     1
102
RTVSPropertyOp23
 70
     1
102
RTVSPropertyOp24
 70
     1
102
RTVSPropertyOp25
 70
     1
102
RTVSPropertyOp26
 70
     1
102
RTVSPropertyOp27
 70
     1
102
RTVSPropertyOp28
 70
     1
102
RTVSPropertyOp29
 70
     1
102
RTVSPropertyOp30
 70
     1
102
RTVSPropertyOp31
 70
     1
102
RTVSPropertyOp32
 70
     1
102
RTVSPropertyOp33
 70
     1
102
RTVSPropertyOp34
 70
     1
102
RTVSPropertyOp35
 70
     1
102
RTVSPropertyOp36
 70
     1
102
RTVSPropertyOp37
 70
     1
102
RTVSPropertyOp38
 70
     1
102
RTVSPropertyOp39
 70
     1
102
RTVSPropertyOp40
 70
     1
102
RTVSPropertyOp41
 70
     1
102
RTVSPropertyOp42
 70
     1
102
RTVSPropertyOp43
 70
     1
102
RTVSPropertyOp44
 70
     1
102
RTVSPropertyOp45
 70
     1
102
RTVSPropertyOp46
 70
     1
102
RTVSPropertyOp47
 70
     1
102
RTVSPropertyOp48
 70
     1
102
RTVSPropertyOp49
 70
     1
102
RTVSPropertyOp50
 70
     1
102
RTVSPropertyOp51
 70
     0
102
RTVSPropertyOp52
 70
     0
102
RTVSPropertyOp53
 70
     1
102
RTVSPropertyOp54
 70
     1
102
RTVSPropertyOp55
 70
     1
102
RTVSPropertyOp56
 70
     1
102
RTVSPropertyOp57
 70
     1
102
RTVSPropertyOp58
 70
     1
102
RTVSPropertyOp59
 70
     1
102
RTVSPropertyOp60
 70
     1
102
RTVSPropertyOp61
 70
     1
102
RTVSPropertyOp62
 70
     1
  0
XRECORD
  5
854
102
{ACAD_REACTORS
330
853
102
}
330
853
100
AcDbXrecord
280
     1
102
RTVSPost2010Prop28
280
     0
102
RTVSPost2010PropOp28
 70
     1
102
RTVSPost2010Prop29
280
     1
102
RTVSPost2010PropOp29
 70
     1
102
RTVSPost2010Prop30
280
     1
102
RTVSPost2010PropOp30
 70
     1
102
RTVSPost2010Prop31
280
     0
102
RTVSPost2010PropOp31
 70
     1
102
RTVSPost2010Prop32
280
     0
102
RTVSPost2010PropOp32
 70
     1
102
RTVSPost2010Prop33
280
     0
102
RTVSPost2010PropOp33
 70
     1
102
RTVSPost2010Prop34
280
     0
102
RTVSPost2010PropOp34
 70
     1
102
RTVSPost2010Prop35
280
     0
102
RTVSPost2010PropOp35
 70
     1
102
RTVSPost2010Prop36
280
     0
102
RTVSPost2010PropOp36
 70
     1
102
RTVSPost2010Prop37
 90
       50
102
RTVSPost2010PropOp37
 70
     1
102
RTVSPost2010Prop38
140
0.0
102
RTVSPost2010PropOp38
 70
     1
102
RTVSPost2010Prop39
140
1.0
102
RTVSPost2010PropOp39
 70
     1
102
RTVSPost2010Prop40
 90
        0
102
RTVSPost2010PropOp40
 70
     1
102
RTVSPost2010Prop41ColorIndex
 90
       18
102
RTVSPost2010Prop41ColorRGB
 90
        0
102
RTVSPost2010PropOp41
 70
     1
102
RTVSPost2010Prop42
 90
       50
102
RTVSPost2010PropOp42
 70
     1
102
RTVSPost2010Prop43
 90
        3
102
RTVSPost2010PropOp43
 70
     1
102
RTVSPost2010Prop44ColorIndex
 90
        5
102
RTVSPost2010Prop44ColorRGB
 90
      255
102
RTVSPost2010PropOp44
 70
     1
102
RTVSPost2010Prop45
280
     0
102
RTVSPost2010PropOp45
 70
     1
102
RTVSPost2010Prop46
 90
       50
102
RTVSPost2010PropOp46
 70
     1
102
RTVSPost2010Prop47
 90
       50
102
RTVSPost2010PropOp47
 70
     1
102
RTVSPost2010Prop48
 90
       50
102
RTVSPost2010PropOp48
 70
     1
102
RTVSPost2010Prop49
280
     0
102
RTVSPost2010PropOp49
 70
     1
102
RTVSPost2010Prop50
 90
       50
102
RTVSPost2010PropOp50
 70
     1
102
RTVSPost2010Prop51ColorIndex
 90
      256
102
RTVSPost2010Prop51ColorRGB
 90
-16777216
102
RTVSPost2010PropOp51
 70
     0
102
RTVSPost2010Prop52
140
1.0
102
RTVSPost2010PropOp52
 70
     0
102
RTVSPost2010Prop53
 90
        2
102
RTVSPost2010PropOp53
 70
     1
102
RTVSPost2010Prop54
  1
strokes_ogs.tif
102
RTVSPost2010PropOp54
 70
     1
102
RTVSPost2010Prop55
280
     0
102
RTVSPost2010PropOp55
 70
     1
102
RTVSPost2010Prop56
140
1.0
102
RTVSPost2010PropOp56
 70
     1
102
RTVSPost2010Prop57
140
1.0
102
RTVSPost2010PropOp57
 70
     1
102
RTVSPropertyOp0
 70
     1
102
RTVSPropertyOp1
 70
     1
102
RTVSPropertyOp2
 70
     1
102
RTVSPropertyOp3
 70
     1
102
RTVSPropertyOp4
 70
     1
102
RTVSPropertyOp5
 70
     1
102
RTVSPropertyOp6
 70
     1
102
RTVSPropertyOp7
 70
     1
102
RTVSPropertyOp8
 70
     1
102
RTVSPropertyOp9
 70
     1
102
RTVSPropertyOp10
 70
     1
102
RTVSPropertyOp11
 70
     1
102
RTVSPropertyOp12
 70
     1
102
RTVSPropertyOp13
 70
     1
102
RTVSPropertyOp14
 70
     1
102
RTVSPropertyOp15
 70
     1
102
RTVSPropertyOp16
 70
     1
102
RTVSPropertyOp17
 70
     1
102
RTVSPropertyOp18
 70
     1
102
RTVSPropertyOp19
 70
     1
102
RTVSPropertyOp20
 70
     1
102
RTVSPropertyOp21
 70
     1
102
RTVSPropertyOp22
 70
     1
102
RTVSPropertyOp23
 70
     1
102
RTVSPropertyOp24
 70
     1
102
RTVSPropertyOp25
 70
     1
102
RTVSPropertyOp26
 70
     1
102
RTVSPropertyOp27
 70
     1
102
RTVSPropertyOp28
 70
     1
102
RTVSPropertyOp29
 70
     1
102
RTVSPropertyOp30
 70
     1
102
RTVSPropertyOp31
 70
     1
102
RTVSPropertyOp32
 70
     1
102
RTVSPropertyOp33
 70
     1
102
RTVSPropertyOp34
 70
     1
102
RTVSPropertyOp35
 70
     1
102
RTVSPropertyOp36
 70
     1
102
RTVSPropertyOp37
 70
     1
102
RTVSPropertyOp38
 70
     1
102
RTVSPropertyOp39
 70
     1
102
RTVSPropertyOp40
 70
     1
102
RTVSPropertyOp41
 70
     1
102
RTVSPropertyOp42
 70
     1
102
RTVSPropertyOp43
 70
     1
102
RTVSPropertyOp44
 70
     1
102
RTVSPropertyOp45
 70
     1
102
RTVSPropertyOp46
 70
     1
102
RTVSPropertyOp47
 70
     1
102
RTVSPropertyOp48
 70
     1
102
RTVSPropertyOp49
 70
     1
102
RTVSPropertyOp50
 70
     1
102
RTVSPropertyOp51
 70
     0
102
RTVSPropertyOp52
 70
     0
102
RTVSPropertyOp53
 70
     1
102
RTVSPropertyOp54
 70
     1
102
RTVSPropertyOp55
 70
     1
102
RTVSPropertyOp56
 70
     1
102
RTVSPropertyOp57
 70
     1
102
RTVSPropertyOp58
 70
     1
102
RTVSPropertyOp59
 70
     1
102
RTVSPropertyOp60
 70
     1
102
RTVSPropertyOp61
 70
     1
102
RTVSPropertyOp62
 70
     1
  0
XRECORD
  5
848
102
{ACAD_REACTORS
330
847
102
}
330
847
100
AcDbXrecord
280
     1
102
RTVSPost2010Prop28
280
     0
102
RTVSPost2010PropOp28
 70
     1
102
RTVSPost2010Prop29
280
     1
102
RTVSPost2010PropOp29
 70
     1
102
RTVSPost2010Prop30
280
     1
102
RTVSPost2010PropOp30
 70
     1
102
RTVSPost2010Prop31
280
     0
102
RTVSPost2010PropOp31
 70
     1
102
RTVSPost2010Prop32
280
     0
102
RTVSPost2010PropOp32
 70
     1
102
RTVSPost2010Prop33
280
     0
102
RTVSPost2010PropOp33
 70
     1
102
RTVSPost2010Prop34
280
     0
102
RTVSPost2010PropOp34
 70
     1
102
RTVSPost2010Prop35
280
     0
102
RTVSPost2010PropOp35
 70
     1
102
RTVSPost2010Prop36
280
     0
102
RTVSPost2010PropOp36
 70
     1
102
RTVSPost2010Prop37
 90
       50
102
RTVSPost2010PropOp37
 70
     1
102
RTVSPost2010Prop38
140
0.0
102
RTVSPost2010PropOp38
 70
     1
102
RTVSPost2010Prop39
140
1.0
102
RTVSPost2010PropOp39
 70
     1
102
RTVSPost2010Prop40
 90
        0
102
RTVSPost2010PropOp40
 70
     1
102
RTVSPost2010Prop41ColorIndex
 90
       18
102
RTVSPost2010Prop41ColorRGB
 90
        0
102
RTVSPost2010PropOp41
 70
     1
102
RTVSPost2010Prop42
 90
       50
102
RTVSPost2010PropOp42
 70
     1
102
RTVSPost2010Prop43
 90
        3
102
RTVSPost2010PropOp43
 70
     1
102
RTVSPost2010Prop44ColorIndex
 90
        5
102
RTVSPost2010Prop44ColorRGB
 90
      255
102
RTVSPost2010PropOp44
 70
     1
102
RTVSPost2010Prop45
280
     0
102
RTVSPost2010PropOp45
 70
     1
102
RTVSPost2010Prop46
 90
       50
102
RTVSPost2010PropOp46
 70
     1
102
RTVSPost2010Prop47
 90
       50
102
RTVSPost2010PropOp47
 70
     1
102
RTVSPost2010Prop48
 90
       50
102
RTVSPost2010PropOp48
 70
     1
102
RTVSPost2010Prop49
280
     0
102
RTVSPost2010PropOp49
 70
     1
102
RTVSPost2010Prop50
 90
       50
102
RTVSPost2010PropOp50
 70
     1
102
RTVSPost2010Prop51ColorIndex
 90
      256
102
RTVSPost2010Prop51ColorRGB
 90
-16777216
102
RTVSPost2010PropOp51
 70
     0
102
RTVSPost2010Prop52
140
1.0
102
RTVSPost2010PropOp52
 70
     0
102
RTVSPost2010Prop53
 90
        2
102
RTVSPost2010PropOp53
 70
     1
102
RTVSPost2010Prop54
  1
strokes_ogs.tif
102
RTVSPost2010PropOp54
 70
     1
102
RTVSPost2010Prop55
280
     0
102
RTVSPost2010PropOp55
 70
     1
102
RTVSPost2010Prop56
140
1.0
102
RTVSPost2010PropOp56
 70
     1
102
RTVSPost2010Prop57
140
1.0
102
RTVSPost2010PropOp57
 70
     1
102
RTVSPropertyOp0
 70
     1
102
RTVSPropertyOp1
 70
     1
102
RTVSPropertyOp2
 70
     1
102
RTVSPropertyOp3
 70
     1
102
RTVSPropertyOp4
 70
     1
102
RTVSPropertyOp5
 70
     1
102
RTVSPropertyOp6
 70
     1
102
RTVSPropertyOp7
 70
     1
102
RTVSPropertyOp8
 70
     1
102
RTVSPropertyOp9
 70
     1
102
RTVSPropertyOp10
 70
     1
102
RTVSPropertyOp11
 70
     1
102
RTVSPropertyOp12
 70
     1
102
RTVSPropertyOp13
 70
     1
102
RTVSPropertyOp14
 70
     1
102
RTVSPropertyOp15
 70
     1
102
RTVSPropertyOp16
 70
     1
102
RTVSPropertyOp17
 70
     1
102
RTVSPropertyOp18
 70
     1
102
RTVSPropertyOp19
 70
     1
102
RTVSPropertyOp20
 70
     1
102
RTVSPropertyOp21
 70
     1
102
RTVSPropertyOp22
 70
     1
102
RTVSPropertyOp23
 70
     1
102
RTVSPropertyOp24
 70
     1
102
RTVSPropertyOp25
 70
     1
102
RTVSPropertyOp26
 70
     1
102
RTVSPropertyOp27
 70
     1
102
RTVSPropertyOp28
 70
     1
102
RTVSPropertyOp29
 70
     1
102
RTVSPropertyOp30
 70
     1
102
RTVSPropertyOp31
 70
     1
102
RTVSPropertyOp32
 70
     1
102
RTVSPropertyOp33
 70
     1
102
RTVSPropertyOp34
 70
     1
102
RTVSPropertyOp35
 70
     1
102
RTVSPropertyOp36
 70
     1
102
RTVSPropertyOp37
 70
     1
102
RTVSPropertyOp38
 70
     1
102
RTVSPropertyOp39
 70
     1
102
RTVSPropertyOp40
 70
     1
102
RTVSPropertyOp41
 70
     1
102
RTVSPropertyOp42
 70
     1
102
RTVSPropertyOp43
 70
     1
102
RTVSPropertyOp44
 70
     1
102
RTVSPropertyOp45
 70
     1
102
RTVSPropertyOp46
 70
     1
102
RTVSPropertyOp47
 70
     1
102
RTVSPropertyOp48
 70
     1
102
RTVSPropertyOp49
 70
     1
102
RTVSPropertyOp50
 70
     1
102
RTVSPropertyOp51
 70
     0
102
RTVSPropertyOp52
 70
     0
102
RTVSPropertyOp53
 70
     1
102
RTVSPropertyOp54
 70
     1
102
RTVSPropertyOp55
 70
     1
102
RTVSPropertyOp56
 70
     1
102
RTVSPropertyOp57
 70
     1
102
RTVSPropertyOp58
 70
     1
102
RTVSPropertyOp59
 70
     1
102
RTVSPropertyOp60
 70
     1
102
RTVSPropertyOp61
 70
     1
102
RTVSPropertyOp62
 70
     1
  0
XRECORD
  5
866
102
{ACAD_REACTORS
330
865
102
}
330
865
100
AcDbXrecord
280
     1
102
RTVSPost2010Prop28
280
     0
102
RTVSPost2010PropOp28
 70
     1
102
RTVSPost2010Prop29
280
     1
102
RTVSPost2010PropOp29
 70
     1
102
RTVSPost2010Prop30
280
     1
102
RTVSPost2010PropOp30
 70
     1
102
RTVSPost2010Prop31
280
     0
102
RTVSPost2010PropOp31
 70
     1
102
RTVSPost2010Prop32
280
     0
102
RTVSPost2010PropOp32
 70
     1
102
RTVSPost2010Prop33
280
     0
102
RTVSPost2010PropOp33
 70
     1
102
RTVSPost2010Prop34
280
     0
102
RTVSPost2010PropOp34
 70
     1
102
RTVSPost2010Prop35
280
     0
102
RTVSPost2010PropOp35
 70
     1
102
RTVSPost2010Prop36
280
     0
102
RTVSPost2010PropOp36
 70
     1
102
RTVSPost2010Prop37
 90
       50
102
RTVSPost2010PropOp37
 70
     1
102
RTVSPost2010Prop38
140
0.0
102
RTVSPost2010PropOp38
 70
     1
102
RTVSPost2010Prop39
140
1.0
102
RTVSPost2010PropOp39
 70
     1
102
RTVSPost2010Prop40
 90
        0
102
RTVSPost2010PropOp40
 70
     1
102
RTVSPost2010Prop41ColorIndex
 90
       18
102
RTVSPost2010Prop41ColorRGB
 90
        0
102
RTVSPost2010PropOp41
 70
     1
102
RTVSPost2010Prop42
 90
       50
102
RTVSPost2010PropOp42
 70
     1
102
RTVSPost2010Prop43
 90
        3
102
RTVSPost2010PropOp43
 70
     1
102
RTVSPost2010Prop44ColorIndex
 90
        5
102
RTVSPost2010Prop44ColorRGB
 90
      255
102
RTVSPost2010PropOp44
 70
     1
102
RTVSPost2010Prop45
280
     0
102
RTVSPost2010PropOp45
 70
     1
102
RTVSPost2010Prop46
 90
       50
102
RTVSPost2010PropOp46
 70
     1
102
RTVSPost2010Prop47
 90
       50
102
RTVSPost2010PropOp47
 70
     1
102
RTVSPost2010Prop48
 90
       50
102
RTVSPost2010PropOp48
 70
     1
102
RTVSPost2010Prop49
280
     0
102
RTVSPost2010PropOp49
 70
     1
102
RTVSPost2010Prop50
 90
       50
102
RTVSPost2010PropOp50
 70
     1
102
RTVSPost2010Prop51ColorIndex
 90
      256
102
RTVSPost2010Prop51ColorRGB
 90
-16777216
102
RTVSPost2010PropOp51
 70
     0
102
RTVSPost2010Prop52
140
1.0
102
RTVSPost2010PropOp52
 70
     0
102
RTVSPost2010Prop53
 90
        2
102
RTVSPost2010PropOp53
 70
     1
102
RTVSPost2010Prop54
  1
strokes_ogs.tif
102
RTVSPost2010PropOp54
 70
     1
102
RTVSPost2010Prop55
280
     0
102
RTVSPost2010PropOp55
 70
     1
102
RTVSPost2010Prop56
140
1.0
102
RTVSPost2010PropOp56
 70
     1
102
RTVSPost2010Prop57
140
1.0
102
RTVSPost2010PropOp57
 70
     1
102
RTVSPropertyOp0
 70
     1
102
RTVSPropertyOp1
 70
     1
102
RTVSPropertyOp2
 70
     1
102
RTVSPropertyOp3
 70
     1
102
RTVSPropertyOp4
 70
     1
102
RTVSPropertyOp5
 70
     1
102
RTVSPropertyOp6
 70
     1
102
RTVSPropertyOp7
 70
     1
102
RTVSPropertyOp8
 70
     1
102
RTVSPropertyOp9
 70
     1
102
RTVSPropertyOp10
 70
     1
102
RTVSPropertyOp11
 70
     1
102
RTVSPropertyOp12
 70
     1
102
RTVSPropertyOp13
 70
     1
102
RTVSPropertyOp14
 70
     1
102
RTVSPropertyOp15
 70
     1
102
RTVSPropertyOp16
 70
     1
102
RTVSPropertyOp17
 70
     1
102
RTVSPropertyOp18
 70
     1
102
RTVSPropertyOp19
 70
     1
102
RTVSPropertyOp20
 70
     1
102
RTVSPropertyOp21
 70
     1
102
RTVSPropertyOp22
 70
     1
102
RTVSPropertyOp23
 70
     1
102
RTVSPropertyOp24
 70
     1
102
RTVSPropertyOp25
 70
     1
102
RTVSPropertyOp26
 70
     1
102
RTVSPropertyOp27
 70
     1
102
RTVSPropertyOp28
 70
     1
102
RTVSPropertyOp29
 70
     1
102
RTVSPropertyOp30
 70
     1
102
RTVSPropertyOp31
 70
     1
102
RTVSPropertyOp32
 70
     1
102
RTVSPropertyOp33
 70
     1
102
RTVSPropertyOp34
 70
     1
102
RTVSPropertyOp35
 70
     1
102
RTVSPropertyOp36
 70
     1
102
RTVSPropertyOp37
 70
     1
102
RTVSPropertyOp38
 70
     1
102
RTVSPropertyOp39
 70
     1
102
RTVSPropertyOp40
 70
     1
102
RTVSPropertyOp41
 70
     1
102
RTVSPropertyOp42
 70
     1
102
RTVSPropertyOp43
 70
     1
102
RTVSPropertyOp44
 70
     1
102
RTVSPropertyOp45
 70
     1
102
RTVSPropertyOp46
 70
     1
102
RTVSPropertyOp47
 70
     1
102
RTVSPropertyOp48
 70
     1
102
RTVSPropertyOp49
 70
     1
102
RTVSPropertyOp50
 70
     1
102
RTVSPropertyOp51
 70
     0
102
RTVSPropertyOp52
 70
     0
102
RTVSPropertyOp53
 70
     1
102
RTVSPropertyOp54
 70
     1
102
RTVSPropertyOp55
 70
     1
102
RTVSPropertyOp56
 70
     1
102
RTVSPropertyOp57
 70
     1
102
RTVSPropertyOp58
 70
     1
102
RTVSPropertyOp59
 70
     1
102
RTVSPropertyOp60
 70
     1
102
RTVSPropertyOp61
 70
     1
102
RTVSPropertyOp62
 70
     1
  0
ENDSEC
  0
EOF
